Tarqatmalar statistikasi
Yoʻq
 
     
 
 

Deejay ®

Jins:
Yigit
Staj:
11 oy 5 kun
Xabarlar:
22

Qayerdan: Daejeon#

Taqiq:

Eshitmadim ko’rmadim

Janri: Komediya
Chiqqan yili: 2017
Davomiyligi: 01:21:17
Rejissiyor: Faxriddin Abdusattorov
Rollarda: Asqar Hikmatov, Qobil Karimberdiyev, Rixsivoy Aliyev, Dono Boboxonova, Tolib Xojiyev, Muhabbat Abdullayeva, Abduvohid Zoidov va boshqalar.

SKRINSHOTLAR
General
Format : MPEG-4
Format profile : Base Media
Codec ID : isom
File size : 663 MiB
Duration : 1h 21mn
Overall bit rate : 1 139 Kbps
Writing application : Lavf57.62.100
Video #1
ID : 1
Format : AVC
Format/Info : Advanced Video Codec
Format profile : High@L3.0
Format settings, CABAC : Yes
Format settings, ReFrames : 4 frames
Codec ID : avc1
Codec ID/Info : Advanced Video Coding
Duration : 1h 21mn
Bit rate : 1 015 Kbps
Width : 640 pixels
Height : 360 pixels
Display aspect ratio : 16:9
Frame rate mode : Constant
Frame rate : 25.000 fps
Color space : YUV
Chroma subsampling : 4:2:0
Bit depth : 8 bits
Scan type : Progressive
Bits/(Pixel*Frame) : 0.176
Stream size : 583 MiB (88%)
Writing library : x264 core 148 r2744 b97ae06
ID : 2
Format : AAC
Format/Info : Advanced Audio Codec
Format profile : LC
Codec ID : 40
Duration : 1h 21mn
Bit rate mode : Constant
Bit rate : 129 Kbps
Channel count : 2 channels
Channel positions : Front: L R
Sampling rate : 44.1 KHz
Compression mode : Lossy
Delay relative to video : 80ms
Stream size : 75.3 MiB (11%)
Profil ShX

admin

Jins:
Yigit
Staj:
3 oy 16 kun
Xabarlar:
5

Qayerdan: Tashkent, Navai

Taqiq:

Deejay, Teredoni ornatganmisiz?

Mavzu yaratish 24-Avg-2017 14:01 (3 soat o‘tgach)

Iqitibos

Profil ShX

vuelta

Jins:
Yigit
Staj:
11 oy 6 kun
Xabarlar:
284
Taqiq:

urnatgan

Mavzu yaratish 24-Avg-2017 14:04 (2 daqiqa o‘tgach)

Iqitibos

Profil ShX

Jamik

Jins:
Ko‘rsatilmagan
Staj:
10 oy 29 kun
Xabarlar:
14
Taqiq:

nega sidda yuq???

Mavzu yaratish 24-Avg-2017 18:11 (4 soat o‘tgach)

Iqitibos

Profil ShX

MRLG

Jins:
Yigit
Staj:
11 oy 6 kun
Xabarlar:
379
Taqiq:

Jamik, Sider hozir online emas. Agar online bolsa kochirishingiz mumkin.

Mavzu yaratish 24-Avg-2017 18:16 (4 daqiqa o‘tgach)

Iqitibos

Profil ShX

Deejay ®

Jins:
Yigit
Staj:
11 oy 5 kun
Xabarlar:
22

Qayerdan: Daejeon#

Taqiq:

admin, ha o'rnatganman
Jamik, Bo'ldi ko'chirishingiz munkun

Mavzu yaratish 24-Avg-2017 20:19 (2 soat 3 daqiqa o‘tgach)

Iqitibos

Profil ShX

Jamik

Jins:
Ko‘rsatilmagan
Staj:
10 oy 29 kun
Xabarlar:
14
Taqiq:

mega bu film yoqmadi. aktyorlar zo'r faqat rejisyori axmoq

Mavzu yaratish 25-Avg-2017 03:00 (6 soat o‘tgach)

Iqitibos

Profil ShX

Deejay ®

Jins:
Yigit
Staj:
11 oy 5 kun
Xabarlar:
22

Qayerdan: Daejeon#

Taqiq:

Jamik, To'g'risi man ko'rmadim yangilik bo'lgani uchun reliz qldim

Mavzu yaratish 25-Avg-2017 03:16 (16 daqiqa o‘tgach)

Iqitibos

Profil ShX
Xabarlarni ko‘rsatish:    

Hozirgi vaqt: 22-Iyul 19:31

Vaqtlar farqi: UTC + 5



Siz mavzu yaratishingiz mumkin emas
Siz xabarlarga javob qaytarishingiz mumkin emas
Siz o‘z xabarlaringizni tahrirlashingiz mumkin emas
Siz o‘z xabarlaringizni o‘chirishingiz mumkin emas
Siz so‘rovlarda ovoz berishingiz mumkin emas
Siz xabalarga fayllarni biriktirishingiz mumkin emas
Siz fayllarni ko‘chirishingiz mumkin emas