˂
˃
Tarqatmalar statistikasi
Ko‘chirmoqdaman: [ 2 ]
Ko‘chirib bo‘ldim: [ 10 ]
 
     
 
 

Anvar26 ®

Jins:
Yigit
Staj:
3 oy 16 kun
Xabarlar:
17
Taqiq:

Fanny Xon | Фанни Хан | Fanny Khan- Chiqqan yili: 2018
Davlat: Hindiston
Janr: Drama, Komediya, Muziqaviy
Davomiyligi: 01:59:45
Tarjima: Professional (Ko'p ovozli kadr ortidan)-Rejissyor: Atul Manjrekar-Rollarda: Anil Kapur, Aishvariya Ray, Rajkumar Rao, Diviya Data... va boshqalar-Tavsif: Главный герой Прашант, который сам не смог добиться славы, изо всех сил пытается помочь своей дочери стать звездой. И ради этого он готов пойти на всё. Чтобы добиться своей цели, Прашант со своим другом похищает самую популярную певицу в Индии Бейби Сингх…-Videoning sifati: WEBRip [REKLAMA]
Video format: MP4
Video: 630x360, 25.000 fp/s, 633 kb/s
Audio: AAC, 43066Hz, 2ch, 129 kbps UZB

Media Info

*** Общее
Полное имя : D/0/Download/ee54f8d8-85cd-44e4-92f3-6a4192dfba37_768.mp4
Формат : MPEG-4
Профиль формата : Base Media
Идентификатор кодека : isom (isom/iso2/avc1/mp41)
Размер файла : 660 Мбайт
Продолжительность : 1 ч. 59 м.
Общий поток : 771 Кбит/сек
Программа кодирования : Lavf57.62.100
*** Видео
Идентификатор : 1
Формат : AVC
Формат/Информация : Advanced Video Codec
Профиль формата : High@L3
Настройки формата : CABAC / 4 Ref Frames
Параметр CABAC формата : Да
Параметр RefFrames формата : 4 кадра
Идентификатор кодека : avc1
Идентификатор кодека/Информация : Advanced Video Coding
Продолжительность : 1 ч. 59 м.
Битрейт : 633 Кбит/сек
Ширина : 640 пикселей
Высота : 360 пикселей
Соотношение сторон : 4:3
Режим частоты кадров : Постоянный
Частота кадров : 25,000 кадров/сек
Цветовое пространство : YUV
Субдискретизация насыщенности : 4:2:0
Битовая глубина : 8 бит
Тип развёртки : Прогрессивная
Бит/(Пиксели*Кадры) : 0.110
Размер потока : 543 Мбайт (82%)
Библиотека кодирования : x264 core 148 r2744 b97ae06
Настройки программы : cabac=1 / ref=3 / deblock=1:0:0 / analyse=0x3:0x113 / me=hex / subme=7 / psy=1 / psy_rd=1.00:0.00 / mixed_ref=1 / me_range=16 / chroma_me=1 / trellis=1 / 8x8dct=1 / cqm=0 / deadzone=21,11 / fast_pskip=1 / chroma_qp_offset=-2 / threads=6 / lookahead_threads=1 / sliced_threads=0 / nr=0 / decimate=1 / interlaced=0 / bluray_compat=0 / constrained_intra=0 / bframes=3 / b_pyramid=2 / b_adapt=1 / b_bias=0 / direct=1 / weightb=1 / open_gop=0 / weightp=2 / keyint=50 / keyint_min=5 / scenecut=40 / intra_refresh=0 / rc_lookahead=40 / rc=abr / mbtree=1 / bitrate=633 / ratetol=1.0 / qcomp=0.60 / qpmin=0 / qpmax=69 / qpstep=4 / ip_ratio=1.40 / aq=1:1.00
Codec configuration box : avcC
*** Аудио
Идентификатор : 2
Формат : AAC LC
Формат/Информация : Advanced Audio Codec Low Complexity
Идентификатор кодека : mp4a-40-2
Продолжительность : 1 ч. 59 м.
Вид битрейта : Постоянный
Битрейт : 129 Кбит/сек
Каналы : 2 канала
Channel layout : L R
Частота : 44,1 КГц
Частота кадров : 43,066 кадра/сек (1024 SPF)
Метод сжатия : С потерями
Размер потока : 111 Мбайт (17%)
Язык : English
Default : Да
AlternateGroup/String : 1

Lavhalar

Profil ShX

Topik Hind kinofilmlari forumidan Vaqtincha tarqatmalar ga ko‘chirildi
MRLG

Mavzu yaratish 06-Yan-2019 00:47 (1 soat 42 daqiqa o‘tgach)

Xabarlarni ko‘rsatish:    

Hozirgi vaqt: 23-Yan 02:23

Vaqtlar farqi: UTC + 5



Siz mavzu yaratishingiz mumkin emas
Siz xabarlarga javob qaytarishingiz mumkin emas
Siz o‘z xabarlaringizni tahrirlashingiz mumkin emas
Siz o‘z xabarlaringizni o‘chirishingiz mumkin emas
Siz so‘rovlarda ovoz berishingiz mumkin emas
Siz xabalarga fayllarni biriktirishingiz mumkin emas
Siz fayllarni ko‘chirishingiz mumkin emas