˂
˃
Tarqatmalar statistikasi
Ko‘chirmoqdaman: [ 5 ]
Ko‘chirib bo‘ldim: [ 5 ]
 
     
 
 

logan7272 ®

Jins:
Yigit
Staj:
9 oy 20 kun
Xabarlar:
14

Qayerdan: Namangan

Taqiq:

-Hayvonlarning hayvonlari: Grindelwaldning jinoyati | Fantastic Beasts: The Crimes of Grindelwald
-- -Chiqqan yili: 2018
Davlat: AQSH, Buyuk Britaniya
Janri: Oilaviy, Hayoliy Sarguzasht.
Davomiyligi: 02:06:31
Tarjima: dublyaj qilingan TS tovush (Eng tilida)
Subtitrlar: koreyscha o`zida-Rejissiyor: David Yates-Rollarda: Johnny Depp, Kevin Guthrie, Carmen Edzhogo, Wolf Roth, Eddie Redmain, Zoe Kravitz, Callum Turner, Derek Riddell, Cornell John, Ezra Miller-Film haqida: The mighty dark wizard Gellert Green de Wald is caught in the States, but is not going to silently sit in a dungeon and makes a grand escape. Now nothing will prevent him from achieving his goal - to establish the superiority of wizards over all nonmagical creatures on the planet. To thwart the plans of Green de Wald, Albus Dumbledore turns to his former student Newt Salamander, who agrees to help, unaware of the danger he faces. In the magical world breaking apart, love and loyalty are tested for strength, and conflict is shared by true friends and family members.-Sifat: HDTVRip720
Format: mkv
Video: AVC, 1280x720, ~2132 kbps, 24,906 fps
Audio: AAC LC, 44 kHz, 125 kbps, 2 ch-

Skrinshotlar



Media Info

General
Unique ID : 256454290160782424827991570259313767464 (0xC0EF4CB7BEA7E7848FBAF5077B493428)
Complete name : Fantastic Beasts The Crimes of Grindelwald 2018 720p HC HDRip x264-SeeHD\Fantastic Beasts The Crimes of Grindelwald 2018 720p HC HDRip x264.mkv
Format : Matroska
Format version : Version 4 / Version 2
File size : 2.11 GiB
Duration : 2 h 13 min
Overall bit rate : 2 261 kb/s
Encoded date : UTC 2018-12-15 15:20:39
Writing application : mkvmerge v22.0.0 ('At The End Of The World') 64-bit
Writing library : libebml v1.3.5 + libmatroska v1.4.8
Video
ID : 2
Format : AVC
Format/Info : Advanced Video Codec
Format profile : Baseline@L3.1
Format settings : 1 Ref Frames
Format settings, CABAC : No
Format settings, ReFrames : 1 frame
Format settings, GOP : M=1, N=25
Codec ID : V_MPEG4/ISO/AVC
Duration : 2 h 13 min
Bit rate : 2 133 kb/s
Width : 1 280 pixels
Height : 720 pixels
Display aspect ratio : 16:9
Frame rate mode : Variable
Frame rate : 24.906 FPS
Color space : YUV
Chroma subsampling : 4:2:0
Bit depth : 8 bits
Scan type : Progressive
Bits/(Pixel*Frame) : 0.093
Stream size : 1.99 GiB (94%)
Writing library : x264 core 148 r2665 a01e339
Encoding settings : cabac=0 / ref=1 / deblock=1:0:0 / analyse=0x1:0x1 / me=dia / subme=1 / psy=1 / psy_rd=1.00:0.00 / mixed_ref=0 / me_range=16 / chroma_me=1 / trellis=0 / 8x8dct=0 / cqm=0 / deadzone=21,11 / fast_pskip=1 / chroma_qp_offset=0 / threads=3 / lookahead_threads=1 / sliced_threads=0 / nr=0 / decimate=1 / interlaced=0 / bluray_compat=0 / constrained_intra=0 / bframes=0 / weightp=0 / keyint=250 / keyint_min=25 / scenecut=40 / intra_refresh=0 / rc_lookahead=0 / rc=crf / mbtree=0 / crf=23.0 / qcomp=0.60 / qpmin=0 / qpmax=69 / qpstep=4 / vbv_maxrate=4000 / vbv_bufsize=7000 / crf_max=0.0 / nal_hrd=none / filler=0 / ip_ratio=1.40 / aq=1:1.00
Default : Yes
Forced : No
Audio
ID : 1
Format : AAC
Format/Info : Advanced Audio Codec
Format profile : LC
Codec ID : A_AAC-2
Duration : 2 h 13 min
Bit rate : 126 kb/s
Channel(s) : 2 channels
Channel positions : Front: L R
Sampling rate : 44.1 kHz
Frame rate : 43.066 FPS (1024 SPF)
Compression mode : Lossy
Delay relative to video : -23 ms
Stream size : 120 MiB (6%)
Language : English
Default : Yes
Forced : No
-
Profil ShX

logan7272 ®

Jins:
Yigit
Staj:
9 oy 20 kun
Xabarlar:
14

Qayerdan: Namangan

Taqiq:

tezlik sal - pasroq (uzonline) tushunasilar degan umiddaman

Mavzu yaratish 22-Dek-2018 11:44 (16 soat o‘tgach)

Iqitibos

Profil ShX

azizbek

Jins:
Yigit
Staj:
1 yil 2 oy
Xabarlar:
150

Qayerdan: Surxondaryo

Taqiq:

film ingliz tilida ts sifatda. ruscha ham o'zbekcha ham emas

Mavzu yaratish 22-Dek-2018 13:57 (2 soat 13 daqiqa o‘tgach)

Iqitibos

Profil ShX
Xabarlarni ko‘rsatish:    

Hozirgi vaqt: 23-Yan 02:23

Vaqtlar farqi: UTC + 5



Siz mavzu yaratishingiz mumkin emas
Siz xabarlarga javob qaytarishingiz mumkin emas
Siz o‘z xabarlaringizni tahrirlashingiz mumkin emas
Siz o‘z xabarlaringizni o‘chirishingiz mumkin emas
Siz so‘rovlarda ovoz berishingiz mumkin emas
Siz xabalarga fayllarni biriktirishingiz mumkin emas
Siz fayllarni ko‘chirishingiz mumkin emas