MRLG ®

Jins:
Yigit
Staj:
1 yil 1 oy
Xabarlar:
465
Taqiq:

Qanday qilib videofayl haqida ma'lumot olish mumkin?Eng ko'p tarqalgan universal varianti MediaInfo utilitasi yordamida.-Buning uchun tarkibiga Media Info joylashgan kodeklar paketini ko'chirib olishingiz kerak: Ko'chirib oling-Media Info utilitasi mana bu ko'rinishda:

...

<Click here to select file> ga bosamiz, video faylingizni ochib olamiz va matnli ma'lumotlar ko'rinishida qabul qilib olamiz:

...

Tarqatmani rasmiylashtirish uchun bizga Format va Davomiyligi parametrlari kerak bo'ladi:
Video potok bo'yicha (kodek, bitreyt, video hajmi va boshqalar) rasmiylashtirish uchun kerakli parametrlarni ko'rishingiz mumkin:

...

Yanada pastroqda Audio potok bo'yicha (kodek, bitreyt va boshqalar) rasmiylashtirish uchun kerakli parametrlarni ko'rishingiz mumkin:

...

Agar audio yo'lakchalar bir nechta bo'lsa Audio id:1,2,3 va shunga o'xshash boshqa ma'lumotlarni ko'rishingiz mumkin. Shuningdek subtitrlar haqida ma'lumot ham ko'rsatilishi mumkin.
-Agar tarqatilayotgan video material ma'lumotlari tegishli bo'lim Moderatoriga shubha uyg'ontirsa, uning talabiga binoan Media Info bergan barcha ma'lumotlarni spoiler tegi orasiga olgan holda tarqatmaga qo'shish mumkin. Asosan HD-Rip (720p va 1080p) tarqatmalarida so'raladi.-Buning uchun "Save to text file" ga bosgan holda ma'lumotni matnli fayl ko'rinishida saqlab olish kerak:

...

Mana bunaqa ko'rinishda bo'lishi kerak:

MediaInfo

General
Complete name : D:\Кино\Tajnaja.Zhiznj.Domashnih.Zhivotnyh.2016.XviD.iTunes.1.45Gb.BDRip.avi
Format : AVI
Format/Info : Audio Video Interleave
File size : 1.41 GiB
Duration : 1 h 26 min
Overall bit rate : 2 341 kb/s
Writing application : VirtualDubMod 1.5.10.3 | www.virtualdub-fr.org || (build 2550/release)
Writing library : VirtualDubMod build 2550/release
Video
ID : 0
Format : MPEG-4 Visual
Format profile : Advanced Simple@L5
Format settings, BVOP : 1
Format settings, QPel : No
Format settings, GMC : No warppoints
Format settings, Matrix : Custom
Codec ID : XVID
Codec ID/Hint : XviD
Duration : 1 h 26 min
Bit rate : 1 948 kb/s
Width : 704 pixels
Height : 384 pixels
Display aspect ratio : 1.85:1
Frame rate : 23.976 (24000/1001) FPS
Color space : YUV
Chroma subsampling : 4:2:0
Bit depth : 8 bits
Scan type : Progressive
Compression mode : Lossy
Bits/(Pixel*Frame) : 0.301
Stream size : 1.18 GiB (83%)
Writing library : XviD 73
Audio
ID : 1
Format : AC-3
Format/Info : Audio Coding 3
Mode extension : CM (complete main)
Format settings, Endianness : Big
Codec ID : 2000
Duration : 1 h 26 min
Bit rate mode : Constant
Bit rate : 384 kb/s
Channel(s) : 6 channels
Channel positions : Front: L C R, Side: L R, LFE
Sampling rate : 48.0 kHz
Frame rate : 31.250 FPS (1536 spf)
Bit depth : 16 bits
Compression mode : Lossy
Stream size : 237 MiB (16%)
Alignment : Split accross interleaves
Interleave, duration : 42 ms (1.00 video frame)
Interleave, preload duratio : 500 ms
-Ushbu utilitadan barcha turdagi video va audio formatlardan ma'lumot olish uchun foydalanish mumkin.-Media Player Classic (MPC-HC) da ochib olib yuqori chap burchakda joylashgan "Файл" bo'limiga o'tib u yerdan "Свойства" degan qatorni tanlaymiz yoki (SHIFT+F10) tugmalarini birgalikda bosish orqali film haqida ma'lumot beruvchi oynani ochib olamiz va u yerdan relizimizni rasmiylashtirish vaqtida ishlatiladigan Video: va Audio maydonlari uchun kerakli ma'lumotni ko'chirib olishimiz mumkin. Spoilerga qarang.

...


Profil ShX
Xabarlarni ko‘rsatish:    

Hozirgi vaqt: 21-Sen 10:33

Vaqtlar farqi: UTC + 5



Siz mavzu yaratishingiz mumkin emas
Siz xabarlarga javob qaytarishingiz mumkin emas
Siz o‘z xabarlaringizni tahrirlashingiz mumkin emas
Siz o‘z xabarlaringizni o‘chirishingiz mumkin emas
Siz so‘rovlarda ovoz berishingiz mumkin emas
Siz xabalarga fayllarni biriktirishingiz mumkin emas
Siz fayllarni ko‘chirishingiz mumkin emas