˂
˃
Tarqatmalar statistikasi
Ko‘chiraman: [ 1 ]
Ko‘chirmoqdaman: [ 6 ]
Ko‘chirib bo‘ldim: [ 26 ]
 
     
 
 

AxeL ®

Jins:
Yigit
Staj:
8 oy 30 kun
Xabarlar:
613

Qayerdan: Gronland, Norway

Taqiq:

-Final Operatsiyasi / Операция «Финал» / Operation Finale- Chiqqan yili: 2018
Davlat: AQSh
Janr: triller, drama, biografiya, tarixiy
Davomiyligi: 02:03:38
Tarjima: Dublyaj qilingan (O'zbek tilida) MY5 telekanali-Rejissyor: Kris Vays-Ssenariy: Mettyu Orton
Prodyuser: Fred Berger, Oskar Ayzek
Operator: Xavyer Agirresarobe
Kompozitor: Aleksandr Despla-Rollarda: Oskar Ayzek, Ben Kingsli, Melani Loran, Layr Raz, Nik Kroll, Maykl Aronov, Oxad Knoller, Greg Xill, Torben Librext, Maykl Benjamin Ernandes-Tavsif: Ikkinchi jahon urushi tugaganidan o'n besh yil o'tgach, "yahudiy muammosining yakuniy hal etishiga" mas'ul bo'lgan josuslikdagi Gestapo ishchisi Adolf Eichmannni kuzatib borish uchun maxsus agentlar guruhi tuzildi.-Kinopoisk: 6.499 731 (731)
IMDb: 6.50 (10 738)-Sifat: WEB-DLRip
Format: MKV
Video: Xvid 720x384 23.976fps 1 298 Kbps
Audio #1: Dolby AC3 48000Hz 6ch 384kbps Rus tilida
Audio #2: AAC 48000Hz stereo 2ch 127 kbps O'zbek tilida-

Media Info

General
Unique ID                      : 334374861298049677575974742466027425523 (0xFB8E417C44866616A14D199D9AC98EF3)
Complete name                  : D:\Films\Tarjima\HD Video\Final.Operatsiyasi.2018.WEB-DLRip.mkv
Format                         : Matroska
Format version                 : Version 4 / Version 2
File size                      : 1.56 GiB
Duration                       : 2h 3mn
Overall bit rate               : 1 811 Kbps
Encoded date                   : UTC 2018-11-25 12:06:28
Writing application            : mkvmerge v22.0.0 ('At The End Of The World') 64-bit
Writing library                : libebml v1.3.5 + libmatroska v1.4.8
Video
ID                             : 1
Format                         : MPEG-4 Visual
Format profile                 : Advanced Simple@L5
Format settings, BVOP          : 1
Format settings, QPel          : No
Format settings, GMC           : No warppoints
Format settings, Matrix        : Custom
Codec ID                       : V_MS/VFW/FOURCC / XVID
Codec ID/Hint                  : XviD
Duration                       : 2h 3mn
Bit rate                       : 1 298 Kbps
Width                          : 720 pixels
Height                         : 384 pixels
Display aspect ratio           : 1.85:1
Frame rate mode                : Constant
Frame rate                     : 23.976 (23976/1000) fps
Original frame rate            : 23.976 (24000/1001) fps
Color space                    : YUV
Chroma subsampling             : 4:2:0
Bit depth                      : 8 bits
Scan type                      : Progressive
Compression mode               : Lossy
Bits/(Pixel*Frame)             : 0.196
Stream size                    : 1.12 GiB (72%)
Writing library                : XviD 73
Default                        : Yes
Forced                         : No
Audio #1
ID                             : 2
Format                         : AC-3
Format/Info                    : Audio Coding 3
Mode extension                 : CM (complete main)
Format settings, Endianness    : Big
Codec ID                       : A_AC3
Duration                       : 2h 3mn
Bit rate mode                  : Constant
Bit rate                       : 384 Kbps
Channel(s)                     : 6 channels
Channel positions              : Front: L C R, Side: L R, LFE
Sampling rate                  : 48.0 KHz
Frame rate                     : 31.250 fps (1536 spf)
Compression mode               : Lossy
Stream size                    : 339 MiB (21%)
Title                          : Rus tilida (DUB) AxeL
Language                       : Russian
Default                        : Yes
Forced                         : No
Audio #2
ID                             : 3
Format                         : AAC
Format/Info                    : Advanced Audio Codec
Format profile                 : LC
Codec ID                       : A_AAC
Duration                       : 2h 3mn
Bit rate                       : 127 Kbps
Channel(s)                     : 2 channels
Channel positions              : Front: L R
Sampling rate                  : 48.0 KHz
Frame rate                     : 46.875 fps (1024 spf)
Compression mode               : Lossy
Stream size                    : 112 MiB (7%)
Title                          : O'zbek tilida (DUB) AxeL
Language                       : Uzbek
Default                        : No
Forced                         : No
Profil ShX

Anvar26

Jins:
Yigit
Staj:
2 oy 10 kun
Xabarlar:
3
Taqiq:

Qachon tarqatishni boshlaysiz ???

Mavzu yaratish 27-Noy-2018 11:06 (1 kun 17 soat o‘tgach)

Iqitibos

Profil ShX

N.U.R.I.K.B.E.K

Jins:
Yigit
Staj:
1 yil 1 oy
Xabarlar:
344

Qayerdan: Jizzax. Paxtakor

Taqiq:

Anvar26, o'qishda shekili

Mavzu yaratish 27-Noy-2018 11:22 (16 daqiqa o‘tgach)

Iqitibos

Profil ShX

AxeL ®

Jins:
Yigit
Staj:
8 oy 30 kun
Xabarlar:
613

Qayerdan: Gronland, Norway

Taqiq:

Tarqatishni boshladim...

Mavzu yaratish 27-Noy-2018 13:38 (2 soat 16 daqiqa o‘tgach)

Iqitibos

Profil ShX

Soft-Release

Jins:
Yigit
Staj:
9 oy 2 kun
Xabarlar:
737

Qayerdan: Kattakurgan

Taqiq:

6869Qachon tarqatishni boshlaysiz ???
Anvar26, Torrentizni Yoniq Holda Yuklashga Qo'yib Qo'ying! Tarqatuvchi Tarqatganida O'zi Tarqatilaveradi!

Mavzu yaratish 28-Noy-2018 15:06 (1 kun 1 soat o‘tgach)

Iqitibos

Profil ShX
Xabarlarni ko‘rsatish:    

Hozirgi vaqt: 17-Dek 10:42

Vaqtlar farqi: UTC + 5



Siz mavzu yaratishingiz mumkin emas
Siz xabarlarga javob qaytarishingiz mumkin emas
Siz o‘z xabarlaringizni tahrirlashingiz mumkin emas
Siz o‘z xabarlaringizni o‘chirishingiz mumkin emas
Siz so‘rovlarda ovoz berishingiz mumkin emas
Siz xabalarga fayllarni biriktirishingiz mumkin emas
Siz fayllarni ko‘chirishingiz mumkin emas