Deadpool ®

Jins:
Yigit
Staj:
10 oy 10 kun
Xabarlar:
16

Qayerdan: Andijan, Kurgantepa

Taqiq:

Fokus | Focus"Fokus nimada ekanligini bilib oling" Chiqqan yili: 2015
Davlat: AQSH
Janr: Drama, melodrama, komediya, jinoyat
Davomiyligi: 01:44:44
Tarjima: Professional (dublyaj qilingan)
Subtitrlar: Rus, Ukr, Eng
Rejissiyor: Glenn Fikarra, Jon Recoy
Rollarda: Villi Smit, Margot Robbi, Rodrigo Santoro, Jerald Makeyney, BD Vong, Robert Teylor, Brennan Braun, Adrian Martines, Laura Flannery, Stefani Onor
Ta'rif: Fuqarolardan noqonuniy pulni yo'qotish sohasida dastlabki qadamlarni qo'yadigan qizni sevib qolgan tajribali firibgarning hikoyasi. Romantizm o'zlarining nohaq ishlariga to'sqinlik qilayotganliklari aniqlanganida, munosabatlar ularga muammo bo'lib qoladi.-Videoning sifati: BDRip-AVC
Video formati: MKV
Video: AVC, 1024x576 (16:9), 2 500 Kbps, 23.976fps, 0.177 bpp
Audio #1: АС3 5.1 @ 448 kbps - Dub, BD CEE [Russian]
Audio #2: АС3 2.0 @ 192 kbps - Dub, iTunes Russia [Ukrainian]
Audio #3: АС3 5.1 @ 448 kbps - Original [English]
Audio #4: MP3 2.0 @ 192 kbps 44100Hz [Uzbek]

MediaInfo

General
Unique ID : 245055219928572570520709211908049969958 (0xB85BEB29F3A992DB822BB88E392BA326)
Complete name : C:\Users\Kts\Desktop\Фокус Focus (2014) BDRip-AVC -Deadpool.mkv
Format : Matroska
Format version : Version 4 / Version 2
File size : 2.77 GiB
Duration : 1h 44mn
Overall bit rate : 3 780 Kbps
Movie name : Фокус / Focus (2015) BDRip-AVC by bog3417
Encoded date : UTC 2015-07-12 16:12:59
Writing application : mkvmerge v6.5.0 ('Isn't she lovely') built on Oct 20 2013 12:50:05
Writing library : libebml v1.3.0 + libmatroska v1.4.1
Cover : Yes
DURATION : 01:44:42.292231614
NUMBER_OF_FRAMES : 240494
NUMBER_OF_BYTES : 150775013
_STATISTICS_WRITING_APP : mkvmerge v7.0.0 ('Where We Going') 64bit built on Jun 9 2014 15:16:27
_STATISTICS_WRITING_DATE_UTC : 2015-08-20 01:41:55
_STATISTICS_TAGS : BPS DURATION NUMBER_OF_FRAMES NUMBER_OF_BYTES
Video
ID : 1
Format : AVC
Format/Info : Advanced Video Codec
Format profile : High@L4.1
Format settings, CABAC : Yes
Format settings, ReFrames : 11 frames
Codec ID : V_MPEG4/ISO/AVC
Duration : 1h 44mn
Bit rate : 2 500 Kbps
Width : 1 024 pixels
Height : 576 pixels
Display aspect ratio : 16:9
Frame rate mode : Constant
Frame rate : 23.976 fps
Color space : YUV
Chroma subsampling : 4:2:0
Bit depth : 8 bits
Scan type : Progressive
Bits/(Pixel*Frame) : 0.177
Stream size : 1.77 GiB (64%)
Title : Фокус / Focus (2015) BDRip-AVC by bog3417
Writing library : x264 core 146 r2538 121396c
Encoding settings : cabac=1 / ref=11 / deblock=1:-3:-3 / analyse=0x3:0x33 / me=umh / subme=11 / psy=1 / psy_rd=1.00:0.05 / mixed_ref=1 / me_range=32 / chroma_me=1 / trellis=2 / 8x8dct=1 / cqm=0 / deadzone=21,11 / fast_pskip=0 / chroma_qp_offset=-3 / threads=12 / lookahead_threads=2 / sliced_threads=0 / nr=0 / decimate=0 / interlaced=0 / bluray_compat=0 / constrained_intra=0 / bframes=9 / b_pyramid=2 / b_adapt=2 / b_bias=0 / direct=3 / weightb=1 / open_gop=1 / weightp=2 / keyint=240 / keyint_min=23 / scenecut=40 / intra_refresh=0 / rc_lookahead=60 / rc=2pass / mbtree=1 / bitrate=2500 / ratetol=1.0 / qcomp=0.60 / qpmin=0 / qpmax=69 / qpstep=4 / cplxblur=20.0 / qblur=0.5 / ip_ratio=1.40 / aq=3:0.90
Language : English
Default : Yes
Forced : No
Audio #1
ID : 2
Format : AC-3
Format/Info : Audio Coding 3
Mode extension : CM (complete main)
Format settings, Endianness : Big
Codec ID : A_AC3
Duration : 1h 44mn
Bit rate mode : Constant
Bit rate : 448 Kbps
Channel(s) : 6 channels
Channel positions : Front: L C R, Side: L R, LFE
Sampling rate : 48.0 KHz
Bit depth : 16 bits
Compression mode : Lossy
Stream size : 336 MiB (12%)
Title : АС3 5.1 @ 448 kbps - Dub, BD CEE
Language : Russian
Default : Yes
Forced : No
Audio #2
ID : 3
Format : AC-3
Format/Info : Audio Coding 3
Mode extension : CM (complete main)
Format settings, Endianness : Big
Codec ID : A_AC3
Duration : 1h 44mn
Bit rate mode : Constant
Bit rate : 192 Kbps
Channel(s) : 2 channels
Channel positions : Front: L R
Sampling rate : 48.0 KHz
Bit depth : 16 bits
Compression mode : Lossy
Stream size : 144 MiB (5%)
Title : АС3 2.0 @ 192 kbps - Dub, iTunes Russia
Language : Ukrainian
Default : No
Forced : No
Audio #3
ID : 4
Format : AC-3
Format/Info : Audio Coding 3
Mode extension : CM (complete main)
Format settings, Endianness : Big
Codec ID : A_AC3
Duration : 1h 44mn
Bit rate mode : Constant
Bit rate : 448 Kbps
Channel(s) : 6 channels
Channel positions : Front: L C R, Side: L R, LFE
Sampling rate : 48.0 KHz
Bit depth : 16 bits
Compression mode : Lossy
Stream size : 336 MiB (12%)
Title : АС3 5.1 @ 448 kbps - Original
Language : English
Default : No
Forced : No
Audio #4
ID : 11
Format : MPEG Audio
Format version : Version 1
Format profile : Layer 3
Codec ID : A_MPEG/L3
Codec ID/Hint : MP3
Duration : 1h 44mn
Bit rate mode : Constant
Bit rate : 192 Kbps
Channel(s) : 2 channels
Sampling rate : 44.1 KHz
Compression mode : Lossy
Stream size : 144 MiB (5%)
Title : By.Shoxa
Writing library : LAMELAME_MAJOR_VERSI
Language : Uzbek
Default : No
Forced : No
Text #1
ID : 5
Format : UTF-8
Codec ID : S_TEXT/UTF8
Codec ID/Info : UTF-8 Plain Text
Title : Full
Language : Russian
Default : No
Forced : No
Text #2
ID : 6
Format : UTF-8
Codec ID : S_TEXT/UTF8
Codec ID/Info : UTF-8 Plain Text
Title : Forced
Language : Russian
Default : No
Forced : No
Text #3
ID : 7
Format : UTF-8
Codec ID : S_TEXT/UTF8
Codec ID/Info : UTF-8 Plain Text
Title : Forced
Language : Ukrainian
Default : No
Forced : No
Text #4
ID : 8
Format : UTF-8
Codec ID : S_TEXT/UTF8
Codec ID/Info : UTF-8 Plain Text
Title : Full
Language : English
Default : No
Forced : No
Text #5
ID : 9
Format : UTF-8
Codec ID : S_TEXT/UTF8
Codec ID/Info : UTF-8 Plain Text
Title : Full SDH
Language : English
Default : No
Forced : No
Text #6
ID : 10
Format : UTF-8
Codec ID : S_TEXT/UTF8
Codec ID/Info : UTF-8 Plain Text
Title : Full SDH Colored
Language : English
Default : No
Forced : No
Menu
00:00:00.000 : :Chapter 01
00:09:17.974 : :Chapter 02
00:18:55.217 : :Chapter 03
00:30:22.903 : :Chapter 04
00:40:56.077 : :Chapter 05
00:49:16.368 : :Chapter 06
01:00:10.481 : :Chapter 07
01:11:02.756 : :Chapter 08
01:20:27.488 : :Chapter 09
01:28:33.890 : :Chapter 10
01:39:19.619 : :Chapter 11
01:44:43.902 : :Chapter 12

Lavhalar

Profil ShX

MRLG

Jins:
Yigit
Staj:
1 yil 1 oy
Xabarlar:
465
Taqiq:

Kamchiliklarini to'g'riladim. Keyingi safar shu relizingizga qarab kamchiliklarsiz reliz qilishni o'rganing. Omad tilayman. Reliz uchun rahmat.

Mavzu yaratish 08-Dek-2017 10:13 (16 soat o‘tgach)

Iqitibos

Profil ShX

Deadpool ®

Jins:
Yigit
Staj:
10 oy 10 kun
Xabarlar:
16

Qayerdan: Andijan, Kurgantepa

Taqiq:

MRLG, rahmat ozim shoshilib yuklagan dim

Mavzu yaratish 08-Dek-2017 13:15 (3 soat o‘tgach)

Iqitibos

Profil ShX
Xabarlarni ko‘rsatish:    

Hozirgi vaqt: 21-Sen 04:53

Vaqtlar farqi: UTC + 5



Siz mavzu yaratishingiz mumkin emas
Siz xabarlarga javob qaytarishingiz mumkin emas
Siz o‘z xabarlaringizni tahrirlashingiz mumkin emas
Siz o‘z xabarlaringizni o‘chirishingiz mumkin emas
Siz so‘rovlarda ovoz berishingiz mumkin emas
Siz xabalarga fayllarni biriktirishingiz mumkin emas
Siz fayllarni ko‘chirishingiz mumkin emas