Tarqatmalar statistikasi
Yoʻq
 
     
 
 

Javohir123 ®

Jins:
Yigit
Staj:
9 oy 23 kun
Xabarlar:
47
Taqiq:

-Forsaj 8 | Форсаж 8 | The Fate of the Furious- -Davlat: AQSH,Buyuk Britaniya,Fransiya,Kanada,Samoa
Janr: Jangari,Triller,Kriminal
Chiqqan yili: 2017
Davomiyligi: 02:15:57-Tarjima: Professional (dublyaj qilingan) O'zbek Tilida
Rejissiyor: F.Gary.Grey-Rollarda: Vin Dizel, ]Dueyn Djonson, Djeyson Steytem, Mishel Rodriges, Tayriz Gibson, Ludakris, Natali Emmanuel, Kurt Rassel, Skott Istvud, Sharliz Teron, Xelen Mirren, Elza Pataki-Описание: Пристегните ремни — гонка продолжается. Гавана, Берлин, Нью-Йорк, для самой крутой команды в мире нет ничего невозможного, пока они вместе. Но когда на их пути окажется одна из самых красивых женщин на планете и по совместительству королева киберпреступности, дороги друзей разойдутся…-Videoning sifati: WEB-DL
Формат видео: MKV-Video: MPEG4 Video (H264) 1916x796 23.976fps
Audio: Dolby AC3 48000Hz 6ch 384kbps Rus
Audio: MP3 44100Hz stereo 320kbps Uzb

MediaInfo

General
Unique ID : 187822124807981022117944103125272184483 (0x8D4D39B6584CF513B398DAC344A346A3)
Complete name :
Format : Matroska
Format version : Version 4 / Version 2
File size : 4.97 GiB
Duration : 2 h 15 min
Overall bit rate : 5 234 kb/s
Movie name : T_F_O_T_FURIOUS_WEB_DL_1080p-BLUEBIRD
Encoded date : UTC 2017-06-21 05:11:03
Writing application : mkvmerge v9.2.0 ('Photograph') 32bit
Writing library : libebml v1.3.3 + libmatroska v1.4.4
Video
ID : 1
Format : AVC
Format/Info : Advanced Video Codec
Format profile : High@L4
Format settings, CABAC : Yes
Format settings, RefFrames : 5 frames
Codec ID : V_MPEG4/ISO/AVC
Duration : 2 h 15 min
Bit rate : 4 527 kb/s
Width : 1 916 pixels
Height : 796 pixels
Display aspect ratio : 2.40:1
Frame rate mode : Constant
Frame rate : 23.976 (23976/1000) FPS
Color space : YUV
Chroma subsampling : 4:2:0
Bit depth : 8 bits
Scan type : Progressive
Bits/(Pixel*Frame) : 0.124
Stream size : 4.30 GiB (87%)
Title : T_F_O_T_FURIOUS_WEB_DL_1080p-BLUEBIRD
Language : English
Default : Yes
Forced : No
Color range : Limited
Color primaries : BT.709
Transfer characteristics : BT.709
Matrix coefficients : BT.709
Audio #1
ID : 2
Format : AC-3
Format/Info : Audio Coding 3
Format settings, Endianness : Big
Codec ID : A_AC3
Duration : 2 h 15 min
Bit rate mode : Constant
Bit rate : 384 kb/s
Channel(s) : 6 channels
Channel positions : Front: L C R, Side: L R, LFE
Sampling rate : 48.0 kHz
Frame rate : 31.250 FPS (1536 SPF)
Bit depth : 16 bits
Compression mode : Lossy
Stream size : 373 MiB (7%)
Title : [DUB] DD 5.1 @ 384 kbps (iTunes)
Language : Russian
Service kind : Complete Main
Default : Yes
Forced : No
Audio #2
ID : 3
Format : MPEG Audio
Format version : Version 1
Format profile : Layer 3
Mode : Joint stereo
Mode extension : MS Stereo
Codec ID : A_MPEG/L3
Codec ID/Hint : MP3
Duration : 2 h 15 min
Bit rate mode : Constant
Bit rate : 320 kb/s
Channel(s) : 2 channels
Sampling rate : 44.1 kHz
Frame rate : 38.281 FPS (1152 SPF)
Compression mode : Lossy
Stream size : 311 MiB (6%)
Writing library : LAME3.99.5
Default : No
Forced : No
-


So‘ngi marta tahrirlandi: Javohir123 (2017-12-01 00:03), Jami tahrirlangan 1 marta
Profil ShX

nurillo123

Jins:
Ko‘rsatilmagan
Staj:
8 oy 23 kun
Xabarlar:
16
Taqiq:

Javohir123, qasi pragramada iwlavosiz ozbecha qiliw uchun ?

Mavzu yaratish 28-Noy-2017 19:39 (1 daqiqa o‘tgach)

Iqitibos

Profil ShX

Javohir123 ®

Jins:
Yigit
Staj:
9 oy 23 kun
Xabarlar:
47
Taqiq:

Men Corel Video Studio programmasidan foydalanaman

Mavzu yaratish 28-Noy-2017 20:22 (43 daqiqa o‘tgach)

Iqitibos

Profil ShX

nurillo123

Jins:
Ko‘rsatilmagan
Staj:
8 oy 23 kun
Xabarlar:
16
Taqiq:

Rahmat

Mavzu yaratish 29-Noy-2017 07:31 (11 soat o‘tgach)

Iqitibos

Profil ShX

Vampire_1987

Jins:
Ko‘rsatilmagan
Staj:
10 oy 28 kun
Xabarlar:
98
Taqiq:

Javohir123, Ip ingizni Bering )

Mavzu yaratish 05-Dek-2017 11:17 (6 kun o‘tgach)

Iqitibos

Profil ShX

nurillo123

Jins:
Ko‘rsatilmagan
Staj:
8 oy 23 kun
Xabarlar:
16
Taqiq:

Jovohir123
Corel videostudio X10 iwlatiwi orgatin kinolani ozbechaga ogiriwi
Iloji bosa agar

Mavzu yaratish 05-Dek-2017 17:37 (6 soat o‘tgach)

Iqitibos

Profil ShX

Javohir123 ®

Jins:
Yigit
Staj:
9 oy 23 kun
Xabarlar:
47
Taqiq:

buni yozib o'rganib bo'lmaydi. Biron bir odam o'zbekchaga o'girayotganda qarab o'rganvosangiz o'zingizga yaxshi.

Mavzu yaratish 05-Dek-2017 19:24 (1 soat 46 daqiqa o‘tgach)

Iqitibos

Profil ShX

nurillo123

Jins:
Ko‘rsatilmagan
Staj:
8 oy 23 kun
Xabarlar:
16
Taqiq:

Javohir123, telgramiz bormi ?

Mavzu yaratish 06-Dek-2017 05:42 (10 soat o‘tgach)

Iqitibos

Profil ShX

nurillo123

Jins:
Ko‘rsatilmagan
Staj:
8 oy 23 kun
Xabarlar:
16
Taqiq:

Javohir123, ????

Mavzu yaratish 08-Dek-2017 17:08 (2 kun 11 soat o‘tgach)

Iqitibos

Profil ShX
Xabarlarni ko‘rsatish:    

Hozirgi vaqt: 22-Iyul 19:28

Vaqtlar farqi: UTC + 5



Siz mavzu yaratishingiz mumkin emas
Siz xabarlarga javob qaytarishingiz mumkin emas
Siz o‘z xabarlaringizni tahrirlashingiz mumkin emas
Siz o‘z xabarlaringizni o‘chirishingiz mumkin emas
Siz so‘rovlarda ovoz berishingiz mumkin emas
Siz xabalarga fayllarni biriktirishingiz mumkin emas
Siz fayllarni ko‘chirishingiz mumkin emas