˂
˃
Tarqatmalar statistikasi
Ko‘chiraman: [ 1 ]
Ko‘chirib bo‘ldim: [ 2 ]
 
     
 
 

MRLG ®

Jins:
Yigit
Staj:
1 yil 3 oy
Xabarlar:
524
Taqiq:

-Forsaj 8 | Форсаж 8 | The Fate of the Furious- FILM HAQIDA MA`LUMOT
Chiqqan yili: 2017
Davlat: AQSH
Janri: Jangari, triller, jinoiy, sarguzasht
Davomiyligi: 02:15:57
Tarjima: Dublyaj (Professional kadr ortidan)-Rejissiyor: F. Gary Grey / F. Gary Gray
Rollarda
Vin Dizel, Dueyn Djonson, Djeyson Steytem, Mishel Rodriges, Tayriz Gibson, Ludakris, Natali Emmanuel, Kurt Rassel, Skott Istvud, Sharliz Teron, Xelen Mirren, Elza Pataki-Tavsif
Kamarlarni taqib oling - poyga davom etadi. Gavana, Berlin, Nyu-York - eng zo'r komanda, ular birga ekan dunyoda ular uchun iloji yo'q narsani o'zi yo'q. Lekin ular orasiga kiber hujumlar qirolichasi va dunyodagi eng go'zal ayollardan biri kirgach, do'stlarning yo'llari ayriladi.-Qo`shimcha ma`lumotlar
KinoPoisk: 6.482 (33 184)
IMDb: 7.10 (84 994)-Sifat: WEB-DLRip
Format: AVI
Video: Xvid / 720x304 / 23.976fps / 1350kbps /
Audio #1: MP3 / 48000Hz / 2ch / 128kbps / O`zbek tilida
Audio #2: AC3 / 2ch / 48 kHz / 192 kbps / Rus tilida + iTunes-

MI

Общее
Полное имя                               : D:\Кино\O'zbek Tarjima filmlari\Forsaj 8.2017.[Uzb+Rus].WEB-DLRip.1.59Gb.avi
Формат                                   : AVI
Формат/Информация                        : Audio Video Interleave
Размер файла                             : 1,60 Гбайт
Продолжительность                        : 2 ч. 15 м.
Общий поток                              : 1685 Кбит/сек
Программа кодирования                    : VirtualDubMod 1.5.10.3 | www.virtualdub-fr.org || (build 2550/release)
Библиотека кодирования                   : VirtualDubMod build 2550/release
Видео
Идентификатор                            : 0
Формат                                   : MPEG-4 Visual
Профиль формата                          : Advanced Simple@L5
Параметр BVOP формата                    : 1
Параметр QPel формата                    : Нет
Параметр GMC формата                     : Без точки перехода
Параметр матрицы формата                 : Выборочная
Идентификатор кодека                     : XVID
Идентификатор кодека/Подсказка           : XviD
Продолжительность                        : 2 ч. 15 м.
Битрейт                                  : 1351 Кбит/сек
Ширина                                   : 720 пикселей
Высота                                   : 304 пикселя
Соотношение сторон                       : 2,35:1
Частота кадров                           : 23,976 (24000/1001) кадра/сек
Цветовое пространство                    : YUV
Субдискретизация насыщенности            : 4:2:0
Битовая глубина                          : 8 бит
Тип развёртки                            : Прогрессивная
Метод сжатия                             : С потерями
Бит/(Пиксели*Кадры)                      : 0.257
Размер потока                            : 1,28 Гбайт (80%)
Библиотека кодирования                   : XviD 73
Аудио #1
Идентификатор                            : 1
Формат                                   : MPEG Audio
Версия формата                           : Version 1
Профиль формата                          : Layer 3
Идентификатор кодека                     : 55
Идентификатор кодека/Подсказка           : MP3
Продолжительность                        : 2 ч. 15 м.
Вид битрейта                             : Постоянный
Битрейт                                  : 128 Кбит/сек
Каналы                                   : 2 канала
Частота                                  : 48,0 КГц
Метод сжатия                             : С потерями
Размер потока                            : 124 Мбайт (8%)
Выравнивание                             : Соединение по промежуткам
Продолжительность промежутка             : 42  мс. (1,00 видеокадр)
Время предзагрузки промежутка            : 504  мс.
Библиотека кодирования                   : LAME3.99r
Настройки программы                      : -m s -V 4 -q 0 -lowpass 17 -b 128
Аудио #2
Идентификатор                            : 2
Формат                                   : AC-3
Формат/Информация                        : Audio Coding 3
Параметр Endianness формата              : Big
Идентификатор кодека                     : 2000
Продолжительность                        : 2 ч. 15 м.
Вид битрейта                             : Постоянный
Битрейт                                  : 192 Кбит/сек
Каналы                                   : 2 канала
Расположение каналов                     : Front: L R
Частота                                  : 48,0 КГц
Частота кадров                           : 31,250 кадров/сек (1536 SPF)
Битовая глубина                          : 16 бит
Метод сжатия                             : С потерями
Размер потока                            : 187 Мбайт (11%)
Выравнивание                             : Разделение по промежуткам
Продолжительность промежутка             : 42  мс. (1,00 видеокадр)
Время предзагрузки промежутка            : 500  мс.
ServiceKind/String                       : Complete Main

Miniatyura

SKRINSHOTLAR
Profil ShX

Frozen

Jins:
Yigit
Staj:
1 yil 3 oy
Xabarlar:
58

Qayerdan: Toshkent, Navoi

Taqiq:

e qoyil! gap yuq lekin

Mavzu yaratish 22-Avg-2017 21:42 (7 daqiqa o‘tgach)

Iqitibos

Profil ShX

vuelta

Jins:
Yigit
Staj:
1 yil 3 oy
Xabarlar:
299
Taqiq:

shuni kurmagandim kuramizda endi

Mavzu yaratish 22-Avg-2017 22:23 (40 daqiqa o‘tgach)

Iqitibos

Profil ShX
Xabarlarni ko‘rsatish:    

Hozirgi vaqt: 21-Noy 19:29

Vaqtlar farqi: UTC + 5



Siz mavzu yaratishingiz mumkin emas
Siz xabarlarga javob qaytarishingiz mumkin emas
Siz o‘z xabarlaringizni tahrirlashingiz mumkin emas
Siz o‘z xabarlaringizni o‘chirishingiz mumkin emas
Siz so‘rovlarda ovoz berishingiz mumkin emas
Siz xabalarga fayllarni biriktirishingiz mumkin emas
Siz fayllarni ko‘chirishingiz mumkin emas