˂
˃
Tarqatmalar statistikasi
Ko‘chirmoqdaman: [ 4 ]
Ko‘chirib bo‘ldim: [ 10 ]
 
     
 
 

N.U.R.I.K.B.E.K ®

Jins:
Yigit
Staj:
1 yil 1 oy
Xabarlar:
339

Qayerdan: Jizzax. Paxtakor

Taqiq:

-Galaktika Qo'riqchilari | Стражи Галактики | Guardians of the Galaxy--
Chiqqan yili: 2014
Davlat: AQSH, Buyuk Britaniya.
Janr: Fantastik, Jangari, Sarguzasht.
Davomiyligi: 02:00:51
Tarjima: Professional (dublyaj qilingan)
Tarjima #1: Professional MY5TV O'zbek Tilida
Tarjima #2: Professional Rus Tilida--Rejissyor: Jeyms Gann.--Rollarda: Kris Prett, Zoi Saldana, Deyv Batista, Vin Dizel, Bredli Kuper, Li Peys, Maykl Ruker, Karen Gillan, Jimon Xonsu, Jon Si Rayli.- --Tavsif: Piter Kvill sirli bir mintaqani o'g'irlab ketganidan so'ng, ovchi ovchilarni ov qilmoqda. Bu Ronanni, ov qilgan va butun koinotga tahdid soluvchi kuchli qotil edi. Ronanni mag'lub qilish uchun, Butrus chorak kvartet bilan birlashishi kerak, Tish tirnoqlarigacha qurollangan, daraxtga o'xshash insoniylik Groot, o'lik va sirli Gamora va halokatli Drax. Ammo Butrus maydonning haqiqiy kuchini ochib, kosmosga qanchalik xavfli ekanligini bilib olgach, u barcha jamoa a'zolarini yakuniy qarama-qarshilik uchun to'plash va barcha galaktikada muvozanatni qaytarish uchun barcha imkoniyatlarni ishga solishi kerak.--Videoning sifati: WEB-DLRip
Video format: MKV--Video: Xvid 720x304 23.976fps 1 513 kb/s
Audio: MP3 48000Hz stereo 192kbps O'zbek Tili
Audio 2: Dolby AC3 48000Hz stereo 192kbps Rus Tili--

Media Info

General
Format : Matroska
Format version : Version 4 / Version 2
File size : 1.60 GiB
Duration : 2 h 0 min
Overall bit rate : 1 899 kb/s
Video
ID : 1
Format : MPEG-4 Visual
Format profile : Advanced Simple@L5
Format settings, BVOP : 1
Format settings, QPel : No
Format settings, GMC : No warppoints
Format settings, Matrix : Custom
Codec ID : V_MS/VFW/FOURCC / XVID
Codec ID/Hint : XviD
Duration : 2 h 0 min
Bit rate : 1 513 kb/s
Width : 720 pixels
Height : 304 pixels
Display aspect ratio : 2.35:1
Frame rate mode : Constant
Frame rate : 23.976 (23976/1000) FPS
Color space : YUV
Chroma subsampling : 4:2:0
Bit depth : 8 bits
Scan type : Progressive
Compression mode : Lossy
Bits/(Pixel*Frame) : 0.288
Stream size : 1.28 GiB (80%)
Writing library : XviD 73
Default : Yes
Forced : No
Audio #1
ID : 2
Format : MPEG Audio
Format version : Version 1
Format profile : Layer 3
Mode : Joint stereo
Mode extension : MS Stereo
Codec ID : A_MPEG/L3
Codec ID/Hint : MP3
Duration : 2 h 0 min
Bit rate mode : Constant
Bit rate : 192 kb/s
Channel(s) : 2 channels
Sampling rate : 48.0 kHz
Frame rate : 41.667 FPS (1152 SPF)
Compression mode : Lossy
Stream size : 166 MiB (10%)
Title : O'zbek Tili
Writing library : LAME3.99.5
Default : Yes
Forced : No
Audio #2
ID : 3
Format : AC-3
Format/Info : Audio Coding 3
Format settings, Endianness : Big
Codec ID : A_AC3
Duration : 2 h 0 min
Bit rate mode : Constant
Bit rate : 192 kb/s
Channel(s) : 2 channels
Channel positions : Front: L R
Sampling rate : 48.0 kHz
Frame rate : 31.250 FPS (1536 SPF)
Bit depth : 16 bits
Compression mode : Lossy
Stream size : 166 MiB (10%)
Title : Rus Tili
Service kind : Complete Main
Default : No
Forced : No
LAVHALAR
Profil ShX
Xabarlarni ko‘rsatish:    

Hozirgi vaqt: 11-Dek 02:52

Vaqtlar farqi: UTC + 5



Siz mavzu yaratishingiz mumkin emas
Siz xabarlarga javob qaytarishingiz mumkin emas
Siz o‘z xabarlaringizni tahrirlashingiz mumkin emas
Siz o‘z xabarlaringizni o‘chirishingiz mumkin emas
Siz so‘rovlarda ovoz berishingiz mumkin emas
Siz xabalarga fayllarni biriktirishingiz mumkin emas
Siz fayllarni ko‘chirishingiz mumkin emas