Tarqatmalar statistikasi
Yoʻq
 
     
 
 

Gr@nd ®

Jins:
Yigit
Staj:
9 oy 27 kun
Xabarlar:
150

Qayerdan: Jizzax Forish

Taqiq:

- -Galaktika Quriqchilari 2 / Стражи Галактики. Часть 2- -Davlat: AQSH
Janr: Fantastika,Jangari,Sarguzasht
Chiqqan yili: 2017
Davomiyligi: 02:16:01
Перевод: Профессиональный (дублированный) O'zbek tilida-Rejissiyor: James Gunn-Rollarda: Chris Pratt, Zoe Saldana, Dave Batista, Vin Diesel, Bradley Cooper, Michael Rooker, Karen Gillan, Pom Clementeffe, Elizabeth Debike, Kurt Russell Theron-Описание: To'plamdagi hamma narsalar: Erman Piter Qvill (Yulduz Lordi), jim go'ri Drax, Gamora yashil tergov izolyatori, yashovchi daraxt Groot va nutq rakosi. Qahramonlar o'zlarini o'zgartirmaydilar va zerikarli muntazamlik bilan tasavvurga sig'maydigan holatlarga tushib qolishadi, boshqalardan boshqalarga zarar keltirmasdan (hatto ba'zan afzalliklari ham yo'q). Bu safar ular butun Galaktikadagi eng muhim sirlardan birini ochishi kerak bo'ladi: aslida kim Piter Qvillning otasi?-Качество видео: BDRip
Формат видео: MKV-Video: MPEG4 Video (H264) 1920x804 24fps
Audio: Dolby AC3 48000Hz 6ch Rus
Audio: Dolby AC3 48000Hz 6ch Eng
Audio: MP3 48000Hz 2ch 128kbps Uzb
-

MediaInfo

General
Unique ID : 205549941718964743391069537521518483740 (0x9AA37A917B146510870DEDA3E4C7991C)
Format : Matroska
Format version : Version 4 / Version 2
File size : 5.26 GiB
Duration : 2h 16mn
Overall bit rate : 5 534 Kbps
Movie name : Xusan_Gr@nd
Encoded date : UTC 2017-09-26 19:28:46
Writing application : mkvmerge v6.8.0 ('Theme for Great Cities') 64bit built on Mar 2 2014 21:34:26
Writing library : libebml v1.3.0 + libmatroska v1.4.1
Video
ID : 1
Format : AVC
Format/Info : Advanced Video Codec
Format profile : High@L4.0
Format settings, CABAC : Yes
Format settings, ReFrames : 5 frames
Codec ID : V_MPEG4/ISO/AVC
Duration : 2h 16mn
Width : 1 920 pixels
Height : 804 pixels
Display aspect ratio : 2.40:1
Frame rate : 24.000 fps
Color space : YUV
Chroma subsampling : 4:2:0
Bit depth : 8 bits
Scan type : Progressive
Title : GOTHGALAXY.vol2_WEB_DL_1080p-BLUEBIRD
Language : English
Default : Yes
Forced : No
Color primaries : BT.709-5, BT.1361, IEC 61966-2-4, SMPTE RP177
Transfer characteristics : BT.709-5, BT.1361
Matrix coefficients : BT.709-5, BT.1361, IEC 61966-2-4 709, SMPTE RP177
Audio #1
ID : 2
Format : AC-3
Format/Info : Audio Coding 3
Mode extension : CM (complete main)
Format settings, Endianness : Big
Codec ID : A_AC3
Duration : 2h 16mn
Bit rate mode : Constant
Bit rate : 384 Kbps
Channel(s) : 6 channels
Channel positions : Front: L C R, Side: L R, LFE
Sampling rate : 48.0 KHz
Bit depth : 16 bits
Compression mode : Lossy
Stream size : 374 MiB (7%)
Title : [DUB] DD 5.1 @ 384 kbps (iTunes)
Language : Russian
Default : No
Forced : No
Audio #2
ID : 3
Format : AC-3
Format/Info : Audio Coding 3
Mode extension : CM (complete main)
Format settings, Endianness : Big
Codec ID : A_AC3
Duration : 2h 16mn
Bit rate mode : Constant
Bit rate : 384 Kbps
Channel(s) : 6 channels
Channel positions : Front: L C R, Side: L R, LFE
Sampling rate : 48.0 KHz
Bit depth : 16 bits
Compression mode : Lossy
Stream size : 374 MiB (7%)
Title : [ORIGINAL] DD 5.1 @ 384 kbps (iTunes)
Language : English
Default : No
Forced : No
Audio #3
ID : 4
Format : AAC
Format/Info : Advanced Audio Codec
Format profile : LC
Codec ID : A_AAC
Duration : 2h 16mn
Channel(s) : 2 channels
Channel positions : Front: L R
Sampling rate : 44.1 KHz
Compression mode : Lossy
Title : [DUB] AAC 2.0 @ 160 kbps
Language : Kazakh
Default : No
Forced : No
Audio #4
ID : 5
Format : MPEG Audio
Format version : Version 1
Format profile : Layer 3
Mode : Joint stereo
Mode extension : MS Stereo
Codec ID : A_MPEG/L3
Codec ID/Hint : MP3
Duration : 2h 16mn
Bit rate mode : Constant
Bit rate : 128 Kbps
Channel(s) : 2 channels
Sampling rate : 44.1 KHz
Compression mode : Lossy
Stream size : 125 MiB (2%)
Title : Xusan_Gr@nd
Writing library : LAME3.98.2
Language : Uzbek
Default : No
Forced : No


So‘ngi marta tahrirlandi: Gr@nd (2017-10-30 12:32), Jami tahrirlangan 2 marta
Profil ShX

vuelta

Jins:
Yigit
Staj:
11 oy 7 kun
Xabarlar:
284
Taqiq:

zor

Mavzu yaratish 29-Sen-2017 13:21 (4 daqiqa o‘tgach)

Iqitibos

Profil ShX

Vampire_1987

Jins:
Ko‘rsatilmagan
Staj:
10 oy 28 kun
Xabarlar:
98
Taqiq:

Gr@nd, Salom ) Ishlaringiz Yaxshimi Filimlar Uchun Katta raxmat ) Savolim Bor Edi Siz Uzb Tildagisini qayerdan Olyabsiz Agar Sir Bolmasa Etsangiz ... HD Uzb Saytlardan Olib BDRip Qilyapgan Bolsangiz Yaxshilab Etibor Bering Ovozlar Yaxshi Tushyabdimi Ovoz Orasida Sayt ni Reclamma Qiladi Ular Va 50 Foiz Filimlari Yaxshi Chiqadi ... Qolgan 50 ki Ovozlari Togri Kelmaydi Agar Ozingiz Yozib Taxlayabgan bolsangiz Unda Yaxshi ) Omad Shu Savolimga Jovob Bering Agar Malol Kelmasa )

Mavzu yaratish 29-Sen-2017 13:30 (9 daqiqa o‘tgach)

Iqitibos

Profil ShX

Gr@nd ®

Jins:
Yigit
Staj:
9 oy 27 kun
Xabarlar:
150

Qayerdan: Jizzax Forish

Taqiq:

70 % lar o'zim MY5 dany yozip olaman va ovozlarini qo'yip chiqaman qolganlarini sytlardan olaman ovozlar juda yaxshi tushgan

Mavzu yaratish 29-Sen-2017 13:34 (3 daqiqa o‘tgach)

Iqitibos

Profil ShX

Vampire_1987

Jins:
Ko‘rsatilmagan
Staj:
10 oy 28 kun
Xabarlar:
98
Taqiq:

Gr@nd, Raxmat ) ++

Mavzu yaratish 29-Sen-2017 13:37 (2 daqiqa o‘tgach)

Iqitibos

Profil ShX

vuelta

Jins:
Yigit
Staj:
11 oy 7 kun
Xabarlar:
284
Taqiq:

Shunday yuzerlarimiz kupayaversin sekin sekin foydalanuvchilarniyam kupaytiramiz

Mavzu yaratish 29-Sen-2017 13:59 (22 daqiqa o‘tgach)

Iqitibos

Profil ShX

Jamik

Jins:
Ko‘rsatilmagan
Staj:
10 oy 29 kun
Xabarlar:
14
Taqiq:

Men Grud emas

Mavzu yaratish 05-Okt-2017 10:39 (5 kun o‘tgach)

Iqitibos

Profil ShX

CLeveR

Jins:
Ko‘rsatilmagan
Staj:
11 oy 4 kun
Xabarlar:
1
Taqiq:

Razdaca boladimi

Mavzu yaratish 12-Okt-2017 17:59 (7 kun o‘tgach)

Iqitibos

Profil ShX

RustamoFF

Jins:
Yigit
Staj:
9 oy 9 kun
Xabarlar:
8

Qayerdan: Toshkent

Taqiq:

Holasela tarjima kinolaga ozbecha LOGO yasaberman emdi xolovchulagadee adminla etiborga ob korila gapimmi uzbecha trackerda ruscha LOGO la bosa mancha yarashmidi yana bir oylab korila administratorla lekin zor qilib qoldan kegancha ciroyli qilib yasaberman okala!!!!

Mavzu yaratish 13-Okt-2017 10:21 (16 soat o‘tgach)

Iqitibos

Profil ShX
Xabarlarni ko‘rsatish:    

Hozirgi vaqt: 23-Iyul 03:20

Vaqtlar farqi: UTC + 5



Siz mavzu yaratishingiz mumkin emas
Siz xabarlarga javob qaytarishingiz mumkin emas
Siz o‘z xabarlaringizni tahrirlashingiz mumkin emas
Siz o‘z xabarlaringizni o‘chirishingiz mumkin emas
Siz so‘rovlarda ovoz berishingiz mumkin emas
Siz xabalarga fayllarni biriktirishingiz mumkin emas
Siz fayllarni ko‘chirishingiz mumkin emas