˂
˃
Tarqatmalar statistikasi
Ko‘chiraman: [ 1 ]
 
     
 
 

BestBoy ®

Jins:
Yigit
Staj:
1 yil 1 oy
Xabarlar:
63
Taqiq:

G'aroyib poyga 3
Тачки 3 / Cars 3
- Davlat: AQSH
Janr: Multfilm, kulguli, oilaviy, sarguzasht, sport
Davomiyligi: 01:32:12
Chiqqan yili: 2017
Tarjima: Professional (dublyaj qilingan) Favvora Studio-Rejissyor: Brian Fee
Rollarda: Oven Vilsen, Kristelo Alonzo, Kris Kuper, Neyton Fillion, Larri Kabelshik, Armi Hammer, Rey Malotsi, Toni Shelub-Diqqat! Namoyish etuvchi tomonidan reklama mavjud-Syujet: Barcha vaqtning eng mashhur racerini, poyga yo'lining Lightning McQueen afsonasini tan oling! Qahramon barcha musobaqalarda eng yaxshi natijalarni ko'rsatishda davom etmoqda, biroq g'alaba unga osonlikcha berilmaydi va raqobat kuchayadi. Yildirim McQueen qiziqarli sarguzashtlarni kutib oladi, u yerda u yangi do'stlar bilan uchrashadi, shuningdek, motorning tezligi va quvvatini nafaqat riderning chempioniga aylantiradi.- -Byudjet: $175 000 000
Premyerasi: 10 iyun 2017-Sifati: HDTVRip
Format: MTS
Video: MPEG4 Video (H264) 720x576 (15:11) 25fps
Audio: MPEG Audio 48000Hz stereo 128kbps
Audio 2: MPEG Audio 48000Hz stereo 128kbps

Texnik tavsilotlarni batafsil ko'rish

General
ID : 25 (0x19)
Complete name : C:\Documents and Settings\Jackmax\Рабочий стол\MY5-20171118092813-.mts
Format : BDAV
Format/Info : Blu-ray Video
File size : 1.23 GiB
Duration : 1h 32mn
Overall bit rate mode : Variable
Overall bit rate : 1 903 Kbps
Video
ID : 220 (0xDC)
Menu ID : 20 (0x14)
Format : AVC
Format/Info : Advanced Video Codec
Format profile : Main@L3.0
Format settings, CABAC : Yes
Format settings, ReFrames : 4 frames
Codec ID : 27
Duration : 1h 32mn
Bit rate : 1 561 Kbps
Maximum bit rate : 1 900 Kbps
Width : 720 pixels
Height : 576 pixels
Display aspect ratio : 4:3
Frame rate : 25.000 fps
Standard : PAL
Color space : YUV
Chroma subsampling : 4:2:0
Bit depth : 8 bits
Scan type : Interlaced
Bits/(Pixel*Frame) : 0.151
Stream size : 1.01 GiB (82%)
Color primaries : BT.601 PAL
Transfer characteristics : BT.470 System B, BT.470 System G
Matrix coefficients : BT.601
Audio #1
ID : 320 (0x140)
Menu ID : 20 (0x14)
Format : MPEG Audio
Format version : Version 1
Format profile : Layer 2
Codec ID : 3
Duration : 1h 32mn
Bit rate mode : Constant
Bit rate : 128 Kbps
Channel(s) : 2 channels
Sampling rate : 48.0 KHz
Compression mode : Lossy
Delay relative to video : -1s 294ms
Stream size : 84.4 MiB (7%)
Audio #2
ID : 420 (0x1A4)
Menu ID : 20 (0x14)
Format : MPEG Audio
Format version : Version 1
Format profile : Layer 2
Codec ID : 4
Duration : 1h 32mn
Bit rate mode : Constant
Bit rate : 128 Kbps
Channel(s) : 2 channels
Sampling rate : 48.0 KHz
Compression mode : Lossy
Delay relative to video : -1s 294ms
Stream size : 84.4 MiB (7%)

Lavhalar



Profil ShX
Xabarlarni ko‘rsatish:    

Hozirgi vaqt: 21-Noy 18:34

Vaqtlar farqi: UTC + 5



Siz mavzu yaratishingiz mumkin emas
Siz xabarlarga javob qaytarishingiz mumkin emas
Siz o‘z xabarlaringizni tahrirlashingiz mumkin emas
Siz o‘z xabarlaringizni o‘chirishingiz mumkin emas
Siz so‘rovlarda ovoz berishingiz mumkin emas
Siz xabalarga fayllarni biriktirishingiz mumkin emas
Siz fayllarni ko‘chirishingiz mumkin emas