˂
˃
Tarqatmalar statistikasi
Ko‘chirmoqdaman: [ 3 ]
Ko‘chirib bo‘ldim: [ 8 ]
 
     
 
 

Tulkin ®

Jins:
Yigit
Staj:
11 oy 5 kun
Xabarlar:
46

Qayerdan: Kumkurgan

Taqiq:

--Garry Potter. Jamlanmasi | Гарри Поттер. Коллекция | Harry Potter. Collection
2001, 2002, 2004, 2005, 2007, 2009, 2010, 2011 .
02:32:21 | 02:54:33 | 02:21:41 | 02:37:02 | 02:33:28 | 02:33:31 | 02:26:05 | 02:10:29--

Garry Potter Va hikmatlar toshi |Гарри Поттер и философский камень | Harry Potter and the sorcerer's stone | 2001

--Chiqqan yili: 2001
Davlat: AQSh, Buyuk Britaniya
Janr: Fentezi, sarguzasht, Oilaviy
Davomiyligi: 02:32:21
Tarjima: Professional (dublyaj qilingan)
Rejissyor: Kris Kolambus
Rollarda: Deniel Redkliff, Rupert Grint, Emma Uotson, Tom Felton, Richard Xarris, Meggi Smit, Robbi Koltreyn, Saunders Triplets, Fiona Shou, Garri Melling.--Tavsif: Oddiy bir London bolasi, 11 yoshida Garri Potter, ikki kuchli sehrgarning yetim o'g'li ekanligini va o'zi sehrli kuchlarga ega ekanligini bilib oladi. "Xogvarts" sehrgarlik va sehrgarlik maktabi- da Garri ajoyib sarguzashtlarning javhariga tushadi. Kvidish mashq qiladi, aerobatika sporti, jonli shaxmat buyumlari bilan qiziqarli o'yin o'ynaydi, uni yo'q qilishni istagan Dark Wizard bilan uchrashadi.--Videoning sifati: BDRip-AVC
Video format: MKV
Video: AVC, 1016x422, 23.976 fps, 1838 Kbps
Audio#1: 48 kHz, AC3 Dolby Digital, 3/2 (L,C,R,l,r) + LFE ch, 448.00 kbps | RUS
Audio#2: 48 kHz, AC3 Dolby Digital, 3/2 (L,C,R,l,r) + LFE ch, 448.00 kbps | ENG
Audio#3: 44 kHz, AAC Dolby Digital, 3/2 (L,C,R,l,r) + LFE ch, 448.00 kbps | UZB
Subtitrlar#1: Ruscha (to'liq)
Subtitrlar#2: Inglizcha (Full + SDH)-

Media Info

General
Unique ID : 110215914027040269333517950728520768764 (0x52EAD01B589B01550F122A394BD69CFC)
Complete name : E:\torrent\Гарри Поттер Коллекция Harry Potter Collection (2001-2011) BDRip-AVC от Tulkin [2001-2011\01.Garry Potter va Hikmatlar Toshi .mkv
Format : Matroska
Format version : Version 4 / Version 2
File size : 3.12 GiB
Duration : 2h 32mn
Overall bit rate : 2 932 Kbps
Movie name : Harry Potter and the Philosopher's Stone (2001) - HELLYWOOD
Encoded date : UTC 2018-04-06 03:27:36
Writing application : mkvmerge v19.0.0 ('Brave Captain') 64-bit
Writing library : libebml v1.3.5 + libmatroska v1.4.8
DURATION : 02:31:00.343000000
NUMBER_OF_FRAMES : 1304
NUMBER_OF_BYTES : 47929
_STATISTICS_WRITING_APP : mkvmerge v19.0.0 ('Brave Captain') 64-bit
_STATISTICS_WRITING_DATE_UTC : 2018-04-06 03:27:36
_STATISTICS_TAGS : BPS DURATION NUMBER_OF_FRAMES NUMBER_OF_BYTES
Attachment : Yes
Video
ID : 1
Format : AVC
Format/Info : Advanced Video Codec
Format profile : High@L4.1
Format settings, CABAC : Yes
Format settings, ReFrames : 11 frames
Codec ID : V_MPEG4/ISO/AVC
Duration : 2h 32mn
Nominal bit rate : 1 838 Kbps
Width : 1 016 pixels
Height : 422 pixels
Display aspect ratio : 2.40:1
Frame rate mode : Constant
Frame rate : 23.976 fps
Color space : YUV
Chroma subsampling : 4:2:0
Bit depth : 8 bits
Scan type : Progressive
Bits/(Pixel*Frame) : 0.179
Title : potroks
Writing library : x264 core 146 r2538 121396c
Encoding settings : cabac=1 / ref=11 / deblock=1:-3:-3 / analyse=0x3:0x113 / me=umh / subme=11 / psy=1 / psy_rd=0.97:0.00 / mixed_ref=1 / me_range=48 / chroma_me=1 / trellis=2 / 8x8dct=1 / cqm=0 / deadzone=21,11 / fast_pskip=0 / chroma_qp_offset=-2 / threads=9 / lookahead_threads=2 / sliced_threads=0 / nr=0 / decimate=1 / interlaced=0 / bluray_compat=0 / constrained_intra=0 / bframes=12 / b_pyramid=2 / b_adapt=2 / b_bias=0 / direct=3 / weightb=1 / open_gop=0 / weightp=2 / keyint=250 / keyint_min=23 / scenecut=40 / intra_refresh=0 / rc_lookahead=60 / rc=2pass / mbtree=0 / bitrate=1838 / ratetol=1.0 / qcomp=0.70 / qpmin=0 / qpmax=69 / qpstep=4 / cplxblur=20.0 / qblur=0.5 / vbv_maxrate=14000 / vbv_bufsize=14000 / nal_hrd=none / filler=0 / ip_ratio=1.35 / pb_ratio=1.25 / aq=1:0.80
Language : English
Default : Yes
Forced : No
DURATION : 02:32:21.174000000
NUMBER_OF_FRAMES : 219169
NUMBER_OF_BYTES : 2099705300
_STATISTICS_WRITING_APP : mkvmerge v19.0.0 ('Brave Captain') 64-bit
_STATISTICS_WRITING_DATE_UTC : 2018-04-06 03:27:36
_STATISTICS_TAGS : BPS DURATION NUMBER_OF_FRAMES NUMBER_OF_BYTES
Audio #1
ID : 2
Format : AC-3
Format/Info : Audio Coding 3
Mode extension : CM (complete main)
Format settings, Endianness : Big
Codec ID : A_AC3
Duration : 2h 32mn
Bit rate mode : Constant
Bit rate : 448 Kbps
Channel(s) : 6 channels
Channel positions : Front: L C R, Side: L R, LFE
Sampling rate : 48.0 KHz
Bit depth : 16 bits
Compression mode : Lossy
Stream size : 488 MiB (15%)
Title : Dub | DD 5.1 @ 448 kbps - Blu-Ray CEE
Language : Russian
Default : Yes
Forced : No
DURATION : 02:32:21.626000000
NUMBER_OF_FRAMES : 393697
NUMBER_OF_BYTES : 222664604
_STATISTICS_WRITING_APP : mkvmerge v19.0.0 ('Brave Captain') 64-bit
_STATISTICS_WRITING_DATE_UTC : 2018-04-06 03:27:36
_STATISTICS_TAGS : BPS DURATION NUMBER_OF_FRAMES NUMBER_OF_BYTES
Audio #2
ID : 3
Format : AC-3
Format/Info : Audio Coding 3
Mode extension : CM (complete main)
Format settings, Endianness : Big
Codec ID : A_AC3
Duration : 2h 32mn
Bit rate mode : Constant
Bit rate : 448 Kbps
Channel(s) : 6 channels
Channel positions : Front: L C R, Side: L R, LFE
Sampling rate : 48.0 KHz
Bit depth : 16 bits
Compression mode : Lossy
Stream size : 488 MiB (15%)
Title : Original | DD 5.1 @ 448 kbps
Language : English
Default : No
Forced : No
Audio #3
ID : 12
Format : AAC
Format/Info : Advanced Audio Codec
Format profile : LC
Codec ID : A_AAC
Duration : 2h 32mn
Channel(s) : 2 channels
Channel positions : Front: L R
Sampling rate : 44.1 KHz
Compression mode : Lossy
Language : Uzbek
Default : No
Forced : No
Text #1
ID : 4
Format : UTF-8
Codec ID : S_TEXT/UTF8
Codec ID/Info : UTF-8 Plain Text
Title : Forced
Language : Russian
Default : Yes
Forced : No
Text #2
ID : 5
Format : UTF-8
Codec ID : S_TEXT/UTF8
Codec ID/Info : UTF-8 Plain Text
Title : Перевод by Stalk
Language : Russian
Default : No
Forced : No
Text #3
ID : 6
Format : UTF-8
Codec ID : S_TEXT/UTF8
Codec ID/Info : UTF-8 Plain Text
Title : DK
Language : Russian
Default : No
Forced : No
Text #4
ID : 7
Format : UTF-8
Codec ID : S_TEXT/UTF8
Codec ID/Info : UTF-8 Plain Text
Title : SDH.Media.Grouр
Language : Russian
Default : No
Forced : No
Text #5
ID : 8
Format : UTF-8
Codec ID : S_TEXT/UTF8
Codec ID/Info : UTF-8 Plain Text
Title : Forced
Language : Ukrainian
Default : No
Forced : No
Text #6
ID : 9
Format : UTF-8
Codec ID : S_TEXT/UTF8
Codec ID/Info : UTF-8 Plain Text
Language : Ukrainian
Default : No
Forced : No
Text #7
ID : 10
Format : UTF-8
Codec ID : S_TEXT/UTF8
Codec ID/Info : UTF-8 Plain Text
Title : Full
Language : English
Default : No
Forced : No
Text #8
ID : 11
Format : UTF-8
Codec ID : S_TEXT/UTF8
Codec ID/Info : UTF-8 Plain Text
Title : SDH
Language : English
Default : No
Forced : No
Menu
00:00:00.000 : en:(01)00:00:00:000
00:04:05.411 : en:(02)00:04:05:411
00:08:11.157 : en:(03)00:08:11:157
00:12:17.403 : en:(04)00:12:17:403
00:18:25.270 : en:(05)00:18:25:270
00:21:43.635 : en:(06)00:21:43:635
00:24:41.646 : en:(07)00:24:41:646
00:28:49.561 : en:(08)00:28:49:561
00:31:05.196 : en:(09)00:31:05:196
00:34:05.543 : en:(10)00:34:05:543
00:37:49.600 : en:(11)00:37:49:600
00:41:29.487 : en:(12)00:41:29:487
00:46:13.437 : en:(13)00:46:13:437
00:50:29.025 : en:(14)00:50:29:025
00:55:04.300 : en:(15)00:55:04:300
01:00:55.652 : en:(16)01:00:55:652
01:03:43.986 : en:(17)01:03:43:986
01:07:48.230 : en:(18)01:07:48:230
01:13:49.258 : en:(19)01:13:49:258
01:20:17.979 : en:(20)01:20:17:979
01:23:54.529 : en:(21)01:23:54:529
01:28:32.473 : en:(22)01:28:32:473
01:31:42.497 : en:(23)01:31:42:497
01:36:42.630 : en:(24)01:36:42:630
01:42:34.815 : en:(25)01:42:34:815
01:49:05.038 : en:(26)01:49:05:038
01:53:21.628 : en:(27)01:53:21:628
01:58:09.749 : en:(28)01:58:09:749
02:03:44.750 : en:(29)02:03:44:750
02:06:56.108 : en:(30)02:06:56:108
02:10:55.347 : en:(31)02:10:55:347
02:14:18.884 : en:(32)02:14:18:884
02:17:29.574 : en:(33)02:17:29:574
02:21:44.662 : en:(34)02:21:44:662
02:24:10.808 : en:(35)02:24:10:808
02:32:21.423 : en:(36)02:32:21:423

Lavhalar

Garry Potter Va Maxvi hujra |Гарри Поттер и тайная комната | Harry Potter and the chamber of secrets | 2002

--Chiqqan yili: 2002
Davlat: AQSh, Buyuk Britaniya, Germaniya
Janr: Fentezi, sarguzasht, Oilaviy
Davomiyligi: 02:54:23
Tarjima: Professional (dublyaj qilingan)
Rejissyor: Kris Kolambus
Rollarda: Deniel Redkliff, Rupert Grint, Emma Uotson, Tom Felton, Richard Xarris, Meggi Smit, Robbi Koltreyn, Saunders Triplets, Fiona Shou, Garri Melling.--Tavsif: Garri Potter jodugarlik maktabi va Magic Hogwarts maktabining ikkinchi yiliga ko'chib o'tadi. Elf Dobbi Garriga uni kutayotgan xavf haqida ogohlantiradi va undan maktabga qaytmaslikni so'raydi.
Yosh sehrgar elfning maslahatiga amal qilmaydi va "Xogvarts" dagi sirli voqealarga guvoh bo'ladi. Yaqinda Garri va uning do'stlari maxfiy xonaning mavjudligi haqida bilishadi va qorong'u kuchlarni engishga urinib, yangi sarguzashtlarga duch kelishadi.
Qo'sh. ma'lumot: Mavjud emas--Videoning sifati: BDRip-AVC
Video format: MKV
Video: AVC, 996x416, 23.976 fps, 1493 Kbps
Audio#1: 48 kHz, AC3 Dolby Digital, 3/2 (L,C,R,l,r) + LFE ch, 448.00 kbps | RUS
Audio#2: 48 kHz, AC3 Dolby Digital, 3/2 (L,C,R,l,r) + LFE ch, 448.00 kbps | ENG
Audio#3: 44 kHz, AAC Dolby Digital, 3/2 (L,C,R,l,r) + LFE ch, 448.00 kbps | UZB
Subtitrlar#1: Ruscha (to'liq)
Subtitrlar#2: Inglizcha (Full + SDH)--

Media Info

General
Unique ID : 188596592827665353328471996126178443390 (0x8DE261EF08BA2C3738671CC4FFFA007E)
Complete name : E:\torrent\Гарри Поттер Коллекция Harry Potter Collection (2001-2011) BDRip-AVC от Tulkin [2001-2011\02.Harry.Potter.va.Maxfiy.Xujra.mkv
Format : Matroska
Format version : Version 4 / Version 2
File size : 3.15 GiB
Duration : 2h 54mn
Overall bit rate : 2 588 Kbps
Movie name : Harry Potter and the Chamber of Secrets (2002) - HELLYWOOD
Encoded date : UTC 2018-04-06 03:39:56
Writing application : mkvmerge v19.0.0 ('Brave Captain') 64-bit
Writing library : libebml v1.3.5 + libmatroska v1.4.8
DURATION : 02:42:05.317000000
NUMBER_OF_FRAMES : 1738
NUMBER_OF_BYTES : 65057
_STATISTICS_WRITING_APP : mkvmerge v19.0.0 ('Brave Captain') 64-bit
_STATISTICS_WRITING_DATE_UTC : 2018-04-06 03:39:56
_STATISTICS_TAGS : BPS DURATION NUMBER_OF_FRAMES NUMBER_OF_BYTES
Attachment : Yes / Yes
Video
ID : 1
Format : AVC
Format/Info : Advanced Video Codec
Format profile : High@L4.1
Format settings, CABAC : Yes
Format settings, ReFrames : 12 frames
Codec ID : V_MPEG4/ISO/AVC
Duration : 2h 54mn
Nominal bit rate : 1 493 Kbps
Width : 996 pixels
Height : 416 pixels
Display aspect ratio : 2.40:1
Frame rate mode : Constant
Frame rate : 23.976 fps
Color space : YUV
Chroma subsampling : 4:2:0
Bit depth : 8 bits
Scan type : Progressive
Bits/(Pixel*Frame) : 0.150
Title : potroks
Writing library : x264 core 146 r2538 121396c
Encoding settings : cabac=1 / ref=12 / deblock=1:-3:-3 / analyse=0x3:0x113 / me=umh / subme=11 / psy=1 / psy_rd=0.96:0.00 / mixed_ref=1 / me_range=48 / chroma_me=1 / trellis=2 / 8x8dct=1 / cqm=0 / deadzone=21,11 / fast_pskip=0 / chroma_qp_offset=-2 / threads=9 / lookahead_threads=2 / sliced_threads=0 / nr=0 / decimate=1 / interlaced=0 / bluray_compat=0 / constrained_intra=0 / bframes=13 / b_pyramid=2 / b_adapt=2 / b_bias=0 / direct=3 / weightb=1 / open_gop=0 / weightp=2 / keyint=250 / keyint_min=23 / scenecut=40 / intra_refresh=0 / rc_lookahead=60 / rc=2pass / mbtree=0 / bitrate=1493 / ratetol=1.0 / qcomp=0.70 / qpmin=0 / qpmax=69 / qpstep=4 / cplxblur=20.0 / qblur=0.5 / vbv_maxrate=14000 / vbv_bufsize=14000 / nal_hrd=none / filler=0 / ip_ratio=1.35 / pb_ratio=1.25 / aq=1:0.80
Language : English
Default : Yes
Forced : No
DURATION : 02:54:23.078000000
NUMBER_OF_FRAMES : 250863
NUMBER_OF_BYTES : 1952624373
_STATISTICS_WRITING_APP : mkvmerge v19.0.0 ('Brave Captain') 64-bit
_STATISTICS_WRITING_DATE_UTC : 2018-04-06 03:39:56
_STATISTICS_TAGS : BPS DURATION NUMBER_OF_FRAMES NUMBER_OF_BYTES
Audio #1
ID : 2
Format : AC-3
Format/Info : Audio Coding 3
Mode extension : CM (complete main)
Format settings, Endianness : Big
Codec ID : A_AC3
Duration : 2h 54mn
Bit rate mode : Constant
Bit rate : 448 Kbps
Channel(s) : 6 channels
Channel positions : Front: L C R, Side: L R, LFE
Sampling rate : 48.0 KHz
Bit depth : 16 bits
Compression mode : Lossy
Stream size : 559 MiB (17%)
Title : Dub | DD 5.1 @ 448 kbps - Blu-Ray CEE
Language : Russian
Default : Yes
Forced : No
DURATION : 02:54:23.051000000
NUMBER_OF_FRAMES : 450606
NUMBER_OF_BYTES : 254501530
_STATISTICS_WRITING_APP : mkvmerge v19.0.0 ('Brave Captain') 64-bit
_STATISTICS_WRITING_DATE_UTC : 2018-04-06 03:39:56
_STATISTICS_TAGS : BPS DURATION NUMBER_OF_FRAMES NUMBER_OF_BYTES
Audio #2
ID : 3
Format : AC-3
Format/Info : Audio Coding 3
Mode extension : CM (complete main)
Format settings, Endianness : Big
Codec ID : A_AC3
Duration : 2h 54mn
Bit rate mode : Constant
Bit rate : 448 Kbps
Channel(s) : 6 channels
Channel positions : Front: L C R, Side: L R, LFE
Sampling rate : 48.0 KHz
Bit depth : 16 bits
Compression mode : Lossy
Stream size : 559 MiB (17%)
Title : Original | DD 5.1 @ 448 kbps
Language : English
Default : No
Forced : No
Audio #3
ID : 9
Format : AAC
Format/Info : Advanced Audio Codec
Format profile : LC
Codec ID : A_AAC
Duration : 2h 54mn
Channel(s) : 2 channels
Channel positions : Front: L R
Sampling rate : 44.1 KHz
Compression mode : Lossy
Language : Uzbek
Default : No
Forced : No
Text #1
ID : 4
Format : UTF-8
Codec ID : S_TEXT/UTF8
Codec ID/Info : UTF-8 Plain Text
Title : Forced
Language : Russian
Default : Yes
Forced : No
Text #2
ID : 5
Format : UTF-8
Codec ID : S_TEXT/UTF8
Codec ID/Info : UTF-8 Plain Text
Language : Russian
Default : No
Forced : No
Text #3
ID : 6
Format : UTF-8
Codec ID : S_TEXT/UTF8
Codec ID/Info : UTF-8 Plain Text
Title : Voronine
Language : Russian
Default : No
Forced : No
Text #4
ID : 7
Format : UTF-8
Codec ID : S_TEXT/UTF8
Codec ID/Info : UTF-8 Plain Text
Title : Full
Language : English
Default : No
Forced : No
Text #5
ID : 8
Format : UTF-8
Codec ID : S_TEXT/UTF8
Codec ID/Info : UTF-8 Plain Text
Title : SDH
Language : English
Default : No
Forced : No
Menu
00:00:00.000 : en:(01)00:00:00:000
00:03:00.972 : en:(02)00:03:00:972
00:08:37.014 : en:(03)00:08:37:014
00:11:31.023 : en:(04)00:11:31:023
00:14:48.552 : en:(05)00:14:48:552
00:21:20.068 : en:(06)00:21:20:068
00:25:38.451 : en:(07)00:25:38:451
00:29:31.519 : en:(08)00:29:31:519
00:32:32.240 : en:(09)00:32:32:240
00:35:26.081 : en:(10)00:35:26:081
00:39:50.804 : en:(11)00:39:50:804
00:43:52.545 : en:(12)00:43:52:545
00:48:40.125 : en:(13)00:48:40:125
00:54:08.286 : en:(14)00:54:08:286
00:58:08.275 : en:(15)00:58:08:275
01:04:08.594 : en:(16)01:04:08:594
01:09:25.493 : en:(17)01:09:25:493
01:14:12.738 : en:(18)01:14:12:738
01:20:33.078 : en:(19)01:20:33:078
01:25:59.319 : en:(20)01:25:59:319
01:31:56.886 : en:(21)01:31:56:886
01:36:22.484 : en:(22)01:36:22:484
01:41:54.983 : en:(23)01:41:54:983
01:46:02.814 : en:(24)01:46:02:814
01:50:33.376 : en:(25)01:50:33:376
01:55:39.555 : en:(26)01:55:39:555
02:00:30.471 : en:(27)02:00:30:471
02:04:36.844 : en:(28)02:04:36:844
02:08:55.060 : en:(29)02:08:55:060
02:14:22.136 : en:(30)02:14:22:136
02:17:38.625 : en:(31)02:17:38:625
02:23:01.155 : en:(32)02:23:01:155
02:28:01.288 : en:(33)02:28:01:288
02:31:34.790 : en:(34)02:31:34:790
02:34:49.069 : en:(35)02:34:49:069
02:40:04.299 : en:(36)02:40:04:299
02:45:11.941 : en:(37)02:45:11:941
02:54:23.950 : en:(38)02:54:23:950

Lavhalar

Garry Potter va Askaban Maxbusi |Гарри Поттер и узник Азкабана | Harry Potter and the prisoner of Azkaban | 2004

--Chiqqan yili: 2004
Davlat: AQSh, Buyuk Britaniya
Janr: Fentezi, sarguzasht, Oilaviy
Davomiyligi: 02:21:43
Tarjima: Professional (dublyaj qilingan)
Rejissyor: Kris Kolambus
Rollarda: Deniel Redkliff, Rupert Grint, Emma Uotson, Tom Felton, Richard Xarris, Meggi Smit, Robbi Koltreyn, Saunders Triplets, Fiona Shou, Garri Melling.--Tavsif:Yosh sehrgarning eng ko'p sotiladigan moslashuvi uchun uchinchi taksida, ularning barchasini yaxshi ko'radigan qahramonlar, Garri Potter, Ron va Germiona, "Xogvarts" sehr-jodu va sehr-jodu maktabining uchinchi yiliga qaytmoqdalar. Bu safar ular Azkabanning dahshatli qamoqxonasidan qochib ketgan mahbusning sirini oshkor qilishlari kerak, ular ozodlikda qolishlari Garri uchun o'lik xavf tug'diradi ...
Qo'sh. ma'lumot: Mavjud emas--Videoning sifati: BDRip-AVC
Video format: MKV
Video: AVC, 1016x422, 23.976 fps, 2044 Kbps
Audio#1: 48 kHz, AC3 Dolby Digital, 3/2 (L,C,R,l,r) + LFE ch, 448.00 kbps | RUS
Audio#2: 48 kHz, AC3 Dolby Digital, 3/2 (L,C,R,l,r) + LFE ch, 448.00 kbps | ENG
Audio#3: 44 kHz, AAC Dolby Digital, 3/2 (L,C,R,l,r) + LFE ch, 448.00 kbps | UZB
Subtitrlar#1: Ruscha (to'liq)
Subtitrlar#2: Inglizcha (Full + SDH)--

Media Info

General
Unique ID : 97631077276914926976044625018708514594 (0x49730FBFF952786E1365CD1F7A375722)
Complete name : E:\torrent\Гарри Поттер Коллекция Harry Potter Collection (2001-2011) BDRip-AVC от Tulkin [2001-2011\03.Garry Potter va Askaban Maxbusi (O'zbek tilida ).mkv
Format : Matroska
Format version : Version 4 / Version 2
File size : 3.10 GiB
Duration : 2h 21mn
Overall bit rate : 3 135 Kbps
Movie name : Harry Potter and the Prisoner of Azkaban (2004) - HELLYWOOD
Encoded date : UTC 2018-04-06 03:42:25
Writing application : mkvmerge v19.0.0 ('Brave Captain') 64-bit
Writing library : libebml v1.3.5 + libmatroska v1.4.8
DURATION : 02:20:44.812000000
NUMBER_OF_FRAMES : 1629
NUMBER_OF_BYTES : 58508
_STATISTICS_WRITING_APP : mkvmerge v19.0.0 ('Brave Captain') 64-bit
_STATISTICS_WRITING_DATE_UTC : 2018-04-06 03:42:25
_STATISTICS_TAGS : BPS DURATION NUMBER_OF_FRAMES NUMBER_OF_BYTES
Attachment : Yes
Video
ID : 2
Format : AVC
Format/Info : Advanced Video Codec
Format profile : High@L4.1
Format settings, CABAC : Yes
Format settings, ReFrames : 11 frames
Codec ID : V_MPEG4/ISO/AVC
Duration : 2h 21mn
Nominal bit rate : 2 044 Kbps
Width : 1 016 pixels
Height : 422 pixels
Display aspect ratio : 2.40:1
Frame rate mode : Constant
Frame rate : 23.976 fps
Color space : YUV
Chroma subsampling : 4:2:0
Bit depth : 8 bits
Scan type : Progressive
Bits/(Pixel*Frame) : 0.199
Title : potroks
Writing library : x264 core 146 r2538 121396c
Encoding settings : cabac=1 / ref=11 / deblock=1:-3:-3 / analyse=0x3:0x113 / me=umh / subme=11 / psy=1 / psy_rd=1.00:0.02 / mixed_ref=1 / me_range=48 / chroma_me=1 / trellis=2 / 8x8dct=1 / cqm=0 / deadzone=21,11 / fast_pskip=0 / chroma_qp_offset=-3 / threads=9 / lookahead_threads=2 / sliced_threads=0 / nr=0 / decimate=1 / interlaced=0 / bluray_compat=0 / constrained_intra=0 / bframes=12 / b_pyramid=2 / b_adapt=2 / b_bias=0 / direct=3 / weightb=1 / open_gop=0 / weightp=2 / keyint=250 / keyint_min=23 / scenecut=40 / intra_refresh=0 / rc_lookahead=60 / rc=2pass / mbtree=0 / bitrate=2044 / ratetol=1.0 / qcomp=0.70 / qpmin=0 / qpmax=69 / qpstep=4 / cplxblur=20.0 / qblur=0.5 / vbv_maxrate=14000 / vbv_bufsize=14000 / nal_hrd=none / filler=0 / ip_ratio=1.35 / pb_ratio=1.25 / aq=1:0.80
Language : English
Default : Yes
Forced : No
DURATION : 02:21:43.170000000
NUMBER_OF_FRAMES : 366201
NUMBER_OF_BYTES : 203757811
_STATISTICS_WRITING_APP : mkvmerge v19.0.0 ('Brave Captain') 64-bit
_STATISTICS_WRITING_DATE_UTC : 2018-04-06 03:42:25
_STATISTICS_TAGS : BPS DURATION NUMBER_OF_FRAMES NUMBER_OF_BYTES
Audio #1
ID : 1
Format : AAC
Format/Info : Advanced Audio Codec
Format profile : LC
Codec ID : A_AAC
Duration : 2h 21mn
Channel(s) : 2 channels
Channel positions : Front: L R
Sampling rate : 44.1 KHz
Compression mode : Lossy
Language : Uzbek
Default : Yes
Forced : No
DURATION : 02:21:41.076000000
NUMBER_OF_FRAMES : 203822
NUMBER_OF_BYTES : 2172027133
_STATISTICS_WRITING_APP : mkvmerge v19.0.0 ('Brave Captain') 64-bit
_STATISTICS_WRITING_DATE_UTC : 2018-04-06 03:42:25
_STATISTICS_TAGS : BPS DURATION NUMBER_OF_FRAMES NUMBER_OF_BYTES
Audio #2
ID : 3
Format : AC-3
Format/Info : Audio Coding 3
Mode extension : CM (complete main)
Format settings, Endianness : Big
Codec ID : A_AC3
Duration : 2h 21mn
Bit rate mode : Constant
Bit rate : 448 Kbps
Channel(s) : 6 channels
Channel positions : Front: L C R, Side: L R, LFE
Sampling rate : 48.0 KHz
Bit depth : 16 bits
Compression mode : Lossy
Stream size : 454 MiB (14%)
Title : Dub | DD 5.1 @ 448 kbps - Blu-Ray CEE
Language : Russian
Default : No
Forced : No
Audio #3
ID : 4
Format : AC-3
Format/Info : Audio Coding 3
Mode extension : CM (complete main)
Format settings, Endianness : Big
Codec ID : A_AC3
Duration : 2h 21mn
Bit rate mode : Constant
Bit rate : 448 Kbps
Channel(s) : 6 channels
Channel positions : Front: L C R, Side: L R, LFE
Sampling rate : 48.0 KHz
Bit depth : 16 bits
Compression mode : Lossy
Stream size : 454 MiB (14%)
Title : Original | DD 5.1 @ 448 kbps
Language : English
Default : No
Forced : No
Text #1
ID : 5
Format : UTF-8
Codec ID : S_TEXT/UTF8
Codec ID/Info : UTF-8 Plain Text
Title : SDI.Media.Group
Language : Russian
Default : No
Forced : No
Text #2
ID : 6
Format : UTF-8
Codec ID : S_TEXT/UTF8
Codec ID/Info : UTF-8 Plain Text
Title : Stalk
Language : Russian
Default : No
Forced : No
Text #3
ID : 7
Format : UTF-8
Codec ID : S_TEXT/UTF8
Codec ID/Info : UTF-8 Plain Text
Title : SDH
Language : Russian
Default : No
Forced : No
Text #4
ID : 8
Format : UTF-8
Codec ID : S_TEXT/UTF8
Codec ID/Info : UTF-8 Plain Text
Title : SDI.Media.Group
Language : Ukrainian
Default : No
Forced : No
Text #5
ID : 9
Format : UTF-8
Codec ID : S_TEXT/UTF8
Codec ID/Info : UTF-8 Plain Text
Title : Full
Language : English
Default : No
Forced : No
Text #6
ID : 10
Format : UTF-8
Codec ID : S_TEXT/UTF8
Codec ID/Info : UTF-8 Plain Text
Title : SDH
Language : English
Default : No
Forced : No
Menu
00:00:00.000 : en:(01)00:00:00:000
00:01:40.098 : en:(02)00:01:40:098
00:06:36.229 : en:(03)00:06:36:229
00:12:45.931 : en:(04)00:12:45:931
00:14:52.516 : en:(05)00:14:52:516
00:16:12.513 : en:(06)00:16:12:513
00:18:56.218 : en:(07)00:18:56:218
00:23:50.387 : en:(08)00:23:50:387
00:28:50.729 : en:(09)00:28:50:729
00:31:21.838 : en:(10)00:31:21:838
00:38:50.161 : en:(11)00:38:50:161
00:44:45.306 : en:(12)00:44:45:306
00:47:37.813 : en:(13)00:47:37:813
00:49:39.935 : en:(14)00:49:39:935
00:53:42.844 : en:(15)00:53:42:844
00:57:28.403 : en:(16)00:57:28:403
01:01:23.721 : en:(17)01:01:23:721
01:03:22.924 : en:(18)01:03:22:924
01:07:10.985 : en:(19)01:07:10:985
01:11:53.475 : en:(20)01:11:53:475
01:19:10.078 : en:(21)01:19:10:078
01:22:29.944 : en:(22)01:22:29:944
01:27:30.870 : en:(23)01:27:30:870
01:30:13.366 : en:(24)01:30:13:366
01:34:19.028 : en:(25)01:34:19:028
01:36:56.894 : en:(26)01:36:56:894
01:42:24.471 : en:(27)01:42:24:471
01:45:40.333 : en:(28)01:45:40:333
01:50:03.596 : en:(29)01:50:03:596
01:55:33.343 : en:(30)01:55:33:343
02:00:07.408 : en:(31)02:00:07:408
02:03:16.055 : en:(32)02:03:16:055
02:06:02.513 : en:(33)02:06:02:513
02:08:42.923 : en:(34)02:08:42:923
02:09:47.404 : en:(35)02:09:47:404
02:21:41.910 : en:(36)02:21:41:910

Lavhalar

Garry Potter va Alanga Qubuki |Гарри Поттер и кубок огня | Harry Potter and the goblet of fire | 2005

--Chiqqan yili: 2005
Davlat: AQSh, Buyuk Britaniya
Janr: Fentezi, sarguzasht, Oilaviy
Davomiyligi: 02:37:02
Tarjima: Professional (dublyaj qilingan)
Rejissyor: Kris Kolambus
Rollarda: Deniel Redkliff, Rupert Grint, Emma Uotson, Tom Felton, Richard Xarris, Meggi Smit, Robbi Koltreyn, Saunders Triplets, Fiona Shou, Garri Melling.--Tavsif:Garri Potter, Ron va Germiona "Xogvarts" sehrgarlik sehrgarlik maktabining to'rtinchi sinfiga qaytdi. Sirli sharoitlarda, Garri xavfli tanlovda ishtirok etish uchun tanlangan - uchta sehrgar turniri, ammo muammo uning barcha raqiblari ancha kattaroq va kuchli.
Bundan tashqari, belgilar Lord Voldemortning qaytishini ko'rsatadi. Tez orada, Garri faqat raqobatda g'alaba qozonish uchun emas, balki, eng avvalo, uning hayoti uchun raqobat qilishi kerak.
Qo'sh. ma'lumot: Mavjud emas--Videoning sifati: BDRip-AVC
Video format: MKV
Video: AVC, 1016x422, 23.976 fps, 1838 Kbps
Audio#1: 48 kHz, AC3 Dolby Digital, 3/2 (L,C,R,l,r) + LFE ch, 448.00 kbps | RUS
Audio#2: 48 kHz, AC3 Dolby Digital, 3/2 (L,C,R,l,r) + LFE ch, 448.00 kbps | ENG
Audio#3: 44 kHz, AAC Dolby Digital, 3/2 (L,C,R,l,r) + LFE ch, 448.00 kbps | UZB
Subtitrlar#1: Ruscha (to'liq)
Subtitrlar#2: Inglizcha (Full + SDH)--

Media Info

General
Unique ID : 315205019054170970270095277008356812185 (0xED22474A9499E733EB5F09E1DE16A599)
Complete name : E:\torrent\Гарри Поттер Коллекция Harry Potter Collection (2001-2011) BDRip-AVC от Tulkin [2001-2011\04.Garry Potter va Alanga Kubogi.mkv
Format : Matroska
Format version : Version 4 / Version 2
File size : 3.02 GiB
Duration : 2h 37mn
Overall bit rate : 2 751 Kbps
Movie name : Harry Potter and the Goblet of Fire (2005) - HELLYWOOD
Encoded date : UTC 2018-04-06 04:14:36
Writing application : mkvmerge v19.0.0 ('Brave Captain') 64-bit
Writing library : libebml v1.3.5 + libmatroska v1.4.8
DURATION : 02:37:06.256000000
NUMBER_OF_FRAMES : 405955
NUMBER_OF_BYTES : 112918581
_STATISTICS_WRITING_APP : mkvmerge v19.0.0 ('Brave Captain') 64-bit
_STATISTICS_WRITING_DATE_UTC : 2018-04-06 04:14:36
_STATISTICS_TAGS : BPS DURATION NUMBER_OF_FRAMES NUMBER_OF_BYTES
Attachment : Yes
Video
ID : 1
Format : AVC
Format/Info : Advanced Video Codec
Format profile : High@L4.1
Format settings, CABAC : Yes
Format settings, ReFrames : 10 frames
Codec ID : V_MPEG4/ISO/AVC
Duration : 2h 37mn
Nominal bit rate : 1 757 Kbps
Width : 1 032 pixels
Height : 430 pixels
Display aspect ratio : 2.40:1
Frame rate mode : Constant
Frame rate : 23.976 fps
Color space : YUV
Chroma subsampling : 4:2:0
Bit depth : 8 bits
Scan type : Progressive
Bits/(Pixel*Frame) : 0.165
Title : potroks
Writing library : x264 core 146 r2538 121396c
Encoding settings : cabac=1 / ref=10 / deblock=1:-3:-3 / analyse=0x3:0x113 / me=umh / subme=11 / psy=1 / psy_rd=0.99:0.02 / mixed_ref=1 / me_range=48 / chroma_me=1 / trellis=2 / 8x8dct=1 / cqm=0 / deadzone=21,11 / fast_pskip=0 / chroma_qp_offset=-3 / threads=9 / lookahead_threads=2 / sliced_threads=0 / nr=0 / decimate=1 / interlaced=0 / bluray_compat=0 / constrained_intra=0 / bframes=11 / b_pyramid=2 / b_adapt=2 / b_bias=0 / direct=3 / weightb=1 / open_gop=0 / weightp=2 / keyint=250 / keyint_min=23 / scenecut=40 / intra_refresh=0 / rc_lookahead=60 / rc=2pass / mbtree=0 / bitrate=1757 / ratetol=1.0 / qcomp=0.70 / qpmin=0 / qpmax=69 / qpstep=4 / cplxblur=20.0 / qblur=0.5 / vbv_maxrate=14000 / vbv_bufsize=14000 / nal_hrd=none / filler=0 / ip_ratio=1.35 / pb_ratio=1.25 / aq=1:0.80
Language : English
Default : Yes
Forced : No
DURATION : 02:37:02.789000000
NUMBER_OF_FRAMES : 225921
NUMBER_OF_BYTES : 2069011129
_STATISTICS_WRITING_APP : mkvmerge v19.0.0 ('Brave Captain') 64-bit
_STATISTICS_WRITING_DATE_UTC : 2018-04-06 04:14:36
_STATISTICS_TAGS : BPS DURATION NUMBER_OF_FRAMES NUMBER_OF_BYTES
Audio #1
ID : 2
Format : AC-3
Format/Info : Audio Coding 3
Mode extension : CM (complete main)
Format settings, Endianness : Big
Codec ID : A_AC3
Duration : 2h 37mn
Bit rate mode : Constant
Bit rate : 448 Kbps
Channel(s) : 6 channels
Channel positions : Front: L C R, Side: L R, LFE
Sampling rate : 48.0 KHz
Bit depth : 16 bits
Compression mode : Lossy
Stream size : 503 MiB (16%)
Title : Dub | DD 5.1 @ 448 kbps - Blu-Ray CEE
Language : Russian
Default : Yes
Forced : No
Audio #2
ID : 3
Format : AC-3
Format/Info : Audio Coding 3
Mode extension : CM (complete main)
Format settings, Endianness : Big
Codec ID : A_AC3
Duration : 2h 37mn
Bit rate mode : Constant
Bit rate : 448 Kbps
Channel(s) : 6 channels
Channel positions : Front: L C R, Side: L R, LFE
Sampling rate : 48.0 KHz
Bit depth : 16 bits
Compression mode : Lossy
Stream size : 503 MiB (16%)
Title : Original | DD 5.1 @ 448 kbps
Language : English
Default : No
Forced : No
Audio #3
ID : 11
Format : AAC
Format/Info : Advanced Audio Codec
Format profile : LC
Codec ID : A_AAC
Duration : 2h 37mn
Channel(s) : 2 channels
Channel positions : Front: L R
Sampling rate : 44.1 KHz
Compression mode : Lossy
Language : Uzbek
Default : No
Forced : No
Text #1
ID : 4
Format : UTF-8
Codec ID : S_TEXT/UTF8
Codec ID/Info : UTF-8 Plain Text
Title : Blu-Ray
Language : Russian
Default : No
Forced : No
Text #2
ID : 5
Format : UTF-8
Codec ID : S_TEXT/UTF8
Codec ID/Info : UTF-8 Plain Text
Title : R5
Language : Russian
Default : No
Forced : No
Text #3
ID : 6
Format : UTF-8
Codec ID : S_TEXT/UTF8
Codec ID/Info : UTF-8 Plain Text
Title : Stalk
Language : Russian
Default : No
Forced : No
Text #4
ID : 7
Format : UTF-8
Codec ID : S_TEXT/UTF8
Codec ID/Info : UTF-8 Plain Text
Title : SDI.Media.Group
Language : Ukrainian
Default : No
Forced : No
Text #5
ID : 8
Format : UTF-8
Codec ID : S_TEXT/UTF8
Codec ID/Info : UTF-8 Plain Text
Title : Full
Language : English
Default : No
Forced : No
Text #6
ID : 9
Format : UTF-8
Codec ID : S_TEXT/UTF8
Codec ID/Info : UTF-8 Plain Text
Title : SDH
Language : English
Default : No
Forced : No
Text #7
ID : 10
Format : UTF-8
Codec ID : S_TEXT/UTF8
Codec ID/Info : UTF-8 Plain Text
Title : SDI.Media.Group
Language : English
Default : No
Forced : No
Menu
00:00:00.000 : en:(01)00:00:00:000
00:03:46.559 : en:(02)00:03:46:559
00:06:09.369 : en:(03)00:06:09:369
00:09:50.088 : en:(04)00:09:50:088
00:13:45.324 : en:(05)00:13:45:324
00:19:14.987 : en:(06)00:19:14:987
00:23:09.387 : en:(07)00:23:09:387
00:29:01.573 : en:(08)00:29:01:573
00:36:26.684 : en:(09)00:36:26:684
00:39:05.009 : en:(10)00:39:05:009
00:41:32.489 : en:(11)00:41:32:489
00:45:36.400 : en:(12)00:45:36:400
00:49:07.777 : en:(13)00:49:07:777
00:54:06.242 : en:(14)00:54:06:242
01:02:46.596 : en:(15)01:02:46:596
01:09:12.982 : en:(16)01:09:12:982
01:14:43.979 : en:(17)01:14:43:979
01:22:27.609 : en:(18)01:22:27:609
01:30:34.762 : en:(19)01:30:34:762
01:39:29.296 : en:(20)01:39:29:296
01:42:42.489 : en:(21)01:42:42:489
01:47:22.936 : en:(22)01:47:22:936
01:50:19.279 : en:(23)01:50:19:279
01:58:54.460 : en:(24)01:58:54:460
02:02:02.314 : en:(25)02:02:02:314
02:06:36.588 : en:(26)02:06:36:588
02:10:01.627 : en:(27)02:10:01:627
02:17:38.083 : en:(28)02:17:38:083
02:23:48.620 : en:(29)02:23:48:620
02:37:05.249 : en:(30)02:37:05:249

Lavhalar

Garry Potter va Finekis Jamiyat |Гарри Поттер и орден Феникса | Harry Potter and the order of the Phoenix | 2007

Chiqqan yili: 2007
Davlat: AQSh, Buyuk Britaniya
Janr: Fentezi, sarguzasht, Oilaviy
Davomiyligi: 02:18:15
Tarjima: Professional (dublyaj qilingan)
Rejissyor: Kris Kolambus
Rollarda: Deniel Redkliff, Rupert Grint, Emma Uotson, Tom Felton, Richard Xarris, Meggi Smit, Robbi Koltreyn, Saunders Triplets, Fiona Shou, Garri Melling.
Tavsif:Garri Hogvarts maktabida o'rganish, uning beshinchi yil sarflaydi va sehr jamoa a'zolari ancha universal yomon Voldemort timsoli yosh sehrgar so'nggi o'yin emas, balki jinoyatchi qaytib, deb zarracha tasavvurga ega go'yo inkor tushunadi.
Albus Dambldor Hogvarts "hurmatli kishi uning o'rnini egallash uchun kelajakda Magic Korniliy Fujga vaziri hokimiyatini vayron harakat, Voldemort qaytarish haqida yolg'on mish-mishlarni yoyish qo'rqib, Korniliy Dambldor va Hogvarts talabalar uchun yaqindan kuzatib kerak Dark san'at, qarshi mudofaa yangi professor tayinlaydi.
Lekin mudofaa Magic professor Dolores Ambrijga ma'ruza vazirligi tomonidan tasdiqlangan amalda butunlay foydasiz - yosh, sehrgarlar, ularni tahdid qorong'i kuchlari va butun sehr hamjamiyati chora qarshi turish uchun oddiygina olmaydi. Va keyin, uning do'stlari Germiona va Ron qattiq, Garri uning o'z qo'liga oladi.
Dambldorning armiyasi o'zlarini kasb talabalarning kichik guruh bilan Secret uchrashuvlar, Garri oldinda favqulodda jangga jasur, sehrgarlar tayyorlash, Dark san'at qarshi o'zlarini himoya qilish uchun ularni qanday o'rgatadi.
Qo'sh. ma'lumot: Mavjud emas
Videoning sifati: BDRip-AVC
Video format: MKV
Video: AVC, 1032x430, 23.976 fps, 1757 Kbps
Audio#1: 48 kHz, AC3 Dolby Digital, 3/2 (L,C,R,l,r) + LFE ch, 448.00 kbps | RUS
Audio#2: 48 kHz, AC3 Dolby Digital, 3/2 (L,C,R,l,r) + LFE ch, 448.00 kbps | ENG
Audio#3: 44 kHz, AAC Dolby Digital, 3/2 (L,C,R,l,r) + LFE ch, 448.00 kbps | UZB
Subtitrlar#1: Ruscha (to'liq)
Subtitrlar#2: Inglizcha (Full + SDH)--

Media Info

General
Unique ID : 254296789846263887199096117690521502434 (0xBF4FC7BD53A51C4C88434293924642E2)
Complete name : E:\torrent\Гарри Поттер Коллекция Harry Potter Collection (2001-2011) BDRip-AVC от Tulkin [2001-2011\05.Garry Potter va Finiks Jamiyati (O'zbek tilida ).mkv
Format : Matroska
Format version : Version 4 / Version 2
File size : 3.10 GiB
Duration : 2h 33mn
Overall bit rate : 2 890 Kbps
Movie name : Harry Potter and the Order of the Phoenix (2007) - HELLYWOOD
Encoded date : UTC 2018-04-06 03:44:44
Writing application : mkvmerge v19.0.0 ('Brave Captain') 64-bit
Writing library : libebml v1.3.5 + libmatroska v1.4.8
DURATION : 02:17:16.278000000
NUMBER_OF_FRAMES : 1524
NUMBER_OF_BYTES : 54123
_STATISTICS_WRITING_APP : mkvmerge v19.0.0 ('Brave Captain') 64-bit
_STATISTICS_WRITING_DATE_UTC : 2018-04-06 03:44:44
_STATISTICS_TAGS : BPS DURATION NUMBER_OF_FRAMES NUMBER_OF_BYTES
Attachment : Yes
Video
ID : 1
Format : AVC
Format/Info : Advanced Video Codec
Format profile : High@L4.1
Format settings, CABAC : Yes
Format settings, ReFrames : 10 frames
Codec ID : V_MPEG4/ISO/AVC
Duration : 2h 33mn
Nominal bit rate : 2 119 Kbps
Width : 1 064 pixels
Height : 442 pixels
Display aspect ratio : 2.40:1
Frame rate mode : Constant
Frame rate : 23.976 fps
Color space : YUV
Chroma subsampling : 4:2:0
Bit depth : 8 bits
Scan type : Progressive
Bits/(Pixel*Frame) : 0.188
Title : potroks
Writing library : x264 core 146 r2538 121396c
Encoding settings : cabac=1 / ref=10 / deblock=1:-2:-2 / analyse=0x3:0x113 / me=umh / subme=11 / psy=1 / psy_rd=1.01:0.04 / mixed_ref=1 / me_range=48 / chroma_me=1 / trellis=2 / 8x8dct=1 / cqm=0 / deadzone=21,11 / fast_pskip=0 / chroma_qp_offset=-3 / threads=9 / lookahead_threads=2 / sliced_threads=0 / nr=0 / decimate=1 / interlaced=0 / bluray_compat=0 / constrained_intra=0 / bframes=11 / b_pyramid=2 / b_adapt=2 / b_bias=0 / direct=3 / weightb=1 / open_gop=0 / weightp=2 / keyint=250 / keyint_min=23 / scenecut=40 / intra_refresh=0 / rc_lookahead=60 / rc=2pass / mbtree=0 / bitrate=2119 / ratetol=1.0 / qcomp=0.70 / qpmin=0 / qpmax=69 / qpstep=4 / cplxblur=20.0 / qblur=0.5 / vbv_maxrate=14000 / vbv_bufsize=14000 / nal_hrd=none / filler=0 / ip_ratio=1.40 / pb_ratio=1.30 / aq=1:0.80
Language : English
Default : Yes
Forced : No
DURATION : 02:18:14.328000000
NUMBER_OF_FRAMES : 198865
NUMBER_OF_BYTES : 2196325787
_STATISTICS_WRITING_APP : mkvmerge v19.0.0 ('Brave Captain') 64-bit
_STATISTICS_WRITING_DATE_UTC : 2018-04-06 03:44:44
_STATISTICS_TAGS : BPS DURATION NUMBER_OF_FRAMES NUMBER_OF_BYTES
Audio #1
ID : 2
Format : AC-3
Format/Info : Audio Coding 3
Mode extension : CM (complete main)
Format settings, Endianness : Big
Codec ID : A_AC3
Duration : 2h 33mn
Bit rate mode : Constant
Bit rate : 448 Kbps
Channel(s) : 6 channels
Channel positions : Front: L C R, Side: L R, LFE
Sampling rate : 48.0 KHz
Bit depth : 16 bits
Compression mode : Lossy
Stream size : 492 MiB (16%)
Title : Dub | DD 5.1 @ 448 kbps - Blu-Ray CEE
Language : Russian
Default : Yes
Forced : No
DURATION : 02:18:15.444000000
NUMBER_OF_FRAMES : 357255
NUMBER_OF_BYTES : 198930323
_STATISTICS_WRITING_APP : mkvmerge v19.0.0 ('Brave Captain') 64-bit
_STATISTICS_WRITING_DATE_UTC : 2018-04-06 03:44:44
_STATISTICS_TAGS : BPS DURATION NUMBER_OF_FRAMES NUMBER_OF_BYTES
Audio #2
ID : 3
Format : AC-3
Format/Info : Audio Coding 3
Mode extension : CM (complete main)
Format settings, Endianness : Big
Codec ID : A_AC3
Duration : 2h 33mn
Bit rate mode : Constant
Bit rate : 448 Kbps
Channel(s) : 6 channels
Channel positions : Front: L C R, Side: L R, LFE
Sampling rate : 48.0 KHz
Bit depth : 16 bits
Compression mode : Lossy
Stream size : 492 MiB (16%)
Title : Original | DD 5.1 @ 448 kbps
Language : English
Default : No
Forced : No
Audio #3
ID : 10
Format : AAC
Format/Info : Advanced Audio Codec
Format profile : LC
Codec ID : A_AAC
Duration : 2h 33mn
Channel(s) : 2 channels
Channel positions : Front: L R
Sampling rate : 44.1 KHz
Compression mode : Lossy
Language : Uzbek
Default : No
Forced : No
Text #1
ID : 4
Format : UTF-8
Codec ID : S_TEXT/UTF8
Codec ID/Info : UTF-8 Plain Text
Title : Forced
Language : Russian
Default : Yes
Forced : No
Text #2
ID : 5
Format : UTF-8
Codec ID : S_TEXT/UTF8
Codec ID/Info : UTF-8 Plain Text
Language : Russian
Default : No
Forced : No
Text #3
ID : 6
Format : UTF-8
Codec ID : S_TEXT/UTF8
Codec ID/Info : UTF-8 Plain Text
Title : Forced
Language : Ukrainian
Default : No
Forced : No
Text #4
ID : 7
Format : UTF-8
Codec ID : S_TEXT/UTF8
Codec ID/Info : UTF-8 Plain Text
Language : Ukrainian
Default : No
Forced : No
Text #5
ID : 8
Format : UTF-8
Codec ID : S_TEXT/UTF8
Codec ID/Info : UTF-8 Plain Text
Title : Full
Language : English
Default : No
Forced : No
Text #6
ID : 9
Format : UTF-8
Codec ID : S_TEXT/UTF8
Codec ID/Info : UTF-8 Plain Text
Title : SDH
Language : English
Default : No
Forced : No
Menu
00:00:00.000 : en:(01)00:00:00:000
00:04:50.957 : en:(02)00:04:50:957
00:10:16.782 : en:(03)00:10:16:782
00:15:19.918 : en:(04)00:15:19:918
00:17:43.228 : en:(05)00:17:43:228
00:20:52.416 : en:(06)00:20:52:416
00:25:33.531 : en:(07)00:25:33:531
00:28:07.352 : en:(08)00:28:07:352
00:30:20.985 : en:(09)00:30:20:985
00:34:53.925 : en:(10)00:34:53:925
00:37:41.092 : en:(11)00:37:41:092
00:41:48.505 : en:(12)00:41:48:505
00:44:57.527 : en:(13)00:44:57:527
00:50:57.387 : en:(14)00:50:57:387
00:56:37.393 : en:(15)00:56:37:393
01:03:28.638 : en:(16)01:03:28:638
01:07:39.054 : en:(17)01:07:39:054
01:11:16.104 : en:(18)01:11:16:104
01:16:30.252 : en:(19)01:16:30:252
01:19:16.585 : en:(20)01:19:16:585
01:25:30.959 : en:(21)01:25:30:959
01:31:30.651 : en:(22)01:31:30:651
01:34:49.850 : en:(23)01:34:49:850
01:37:42.356 : en:(24)01:37:42:356
01:41:40.260 : en:(25)01:41:40:260
01:45:59.353 : en:(26)01:45:59:353
01:48:37.177 : en:(27)01:48:37:177
01:52:40.920 : en:(28)01:52:40:920
01:57:30.710 : en:(29)01:57:30:710
02:03:33.239 : en:(30)02:03:33:239
02:05:50.709 : en:(31)02:05:50:709
02:08:26.865 : en:(32)02:08:26:865
02:18:14.201 : en:(33)02:18:14:201

Lavhalar

Garry Potter va Tilsim Shaxzodasi |Гарри Поттер и принц-полукровка | Harry Potter and the half-blood prince | 2009

--Chiqqan yili: 2009
Davlat: AQSh, Buyuk Britaniya
Janr: Fentezi, sarguzasht, Oilaviy
Davomiyligi: 02:33:32
Tarjima: Professional (dublyaj qilingan)
Rejissyor: Kris Kolambus
Rollarda: Deniel Redkliff, Rupert Grint, Emma Uotson, Tom Felton, Richard Xarris, Meggi Smit, Robbi Koltreyn, Saunders Triplets, Fiona Shou, Garri Melling.--Tavsif:Sehrgar dunyosiga balki Lord Voldemort oshirish qudrati bilan his Muggles jahon va Hogvarts Endi nafaqat endi u paytlar edi xavfsiz panoh bo'ladi. Garri qal'a ichidagi deb yolg'on ba'zi xavf gumon, lekin Dambldor u uzoq emas biladi final jangida uni tayyorlash ustiga yana maqsad hisoblanadi. Ular birgalikda mangulik Robbim Voldemort, Dambldor sirini uchini harakat qiling va bu umrni o'z eski do'stimiz va hamkasbimiz bir o'quv o'rnini taklif - professor Goratsiy Slughorn, elita uchun partiya chiqish uchun sevadi, va yuqori joylarda keng ulanishlar faxrlanadi. Lekin bu sodda Vivant va faqat uning Dambldordan Horcruxes haqida eng muhim ma'lumotlarni olish uchun umid, hech qanday fikr bor.
Ayni paytda talabalar turli xil dushmanlar tomonidan hujumga uchraydi va o'smirlik hissiyotlari chetga suriladi. Garri, Ginnyga ham, Dean Tomasga ham tobora befarq bo'lib qolganini anglab eta boshladi. Va Lavanda Braun uning boshiga Ron ichiga qo'ydinglar qildi - bir u kutadi faqat bitta, lekin bu faqat bir sehrli ta'sir shokolad Romilda Vane ko'rib emas! Nihoyat, Germiona yonib turgan rashk bilan yonayotgan, lekin his-tuyg'ularini ko'rsatishga harakat qilmoqda. Romantik munosabatlar gullab-yashnab, faqat bitta talaba qoladi. U o'z belgisini, qorong'i belgini tashlashga qaror qiladi. Sevgi havoda, lekin muammolar kutilmoqda, va Xogvarts hech qachon bir xil bo'lmasligi mumkin.
Qo'sh. ma'lumot: Mavjud emas--Videoning sifati: BDRip-AVC
Video format: MKV
Video: AVC, 1064x442, 23.976 fps, 2119 Kbps
Audio#1: 48 kHz, AC3 Dolby Digital, 3/2 (L,C,R,l,r) + LFE ch, 448.00 kbps | RUS
Audio#2: 48 kHz, AC3 Dolby Digital, 3/2 (L,C,R,l,r) + LFE ch, 448.00 kbps | ENG
Audio#3: 44 kHz, AAC Dolby Digital, 3/2 (L,C,R,l,r) + LFE ch, 448.00 kbps | UZB
Subtitrlar#1: Ruscha (to'liq)
Subtitrlar#2: Inglizcha (Full + SDH)--

Media Info

General
Unique ID : 125193036611325953672851497137570161920 (0x5E2F4D43046A38F1AFC89AA9E141A500)
Complete name : E:\torrent\Гарри Поттер Коллекция Harry Potter Collection (2001-2011) BDRip-AVC от Tulkin [2001-2011\06.Garry Potter va Tilsim Shaxzoda .mkv
Format : Matroska
Format version : Version 4 / Version 2
File size : 3.12 GiB
Duration : 2h 33mn
Overall bit rate : 2 910 Kbps
Movie name : Harry Potter and the Half-Blood Prince (2009) - HELLYWOOD
Encoded date : UTC 2018-04-06 03:46:43
Writing application : mkvmerge v19.0.0 ('Brave Captain') 64-bit
Writing library : libebml v1.3.5 + libmatroska v1.4.8
DURATION : 02:22:46.093000000
NUMBER_OF_FRAMES : 1447
NUMBER_OF_BYTES : 51747
_STATISTICS_WRITING_APP : mkvmerge v19.0.0 ('Brave Captain') 64-bit
_STATISTICS_WRITING_DATE_UTC : 2018-04-06 03:46:43
_STATISTICS_TAGS : BPS DURATION NUMBER_OF_FRAMES NUMBER_OF_BYTES
Attachment : Yes
Video
ID : 2
Format : AVC
Format/Info : Advanced Video Codec
Format profile : High@L4.1
Format settings, CABAC : Yes
Format settings, ReFrames : 10 frames
Codec ID : V_MPEG4/ISO/AVC
Duration : 2h 33mn
Nominal bit rate : 1 819 Kbps
Width : 1 080 pixels
Height : 450 pixels
Display aspect ratio : 2.40:1
Frame rate mode : Constant
Frame rate : 23.976 fps
Color space : YUV
Chroma subsampling : 4:2:0
Bit depth : 8 bits
Scan type : Progressive
Bits/(Pixel*Frame) : 0.156
Title : potroks
Writing library : x264 core 146 r2538 121396c
Encoding settings : cabac=1 / ref=10 / deblock=1:-2:-2 / analyse=0x3:0x113 / me=umh / subme=11 / psy=1 / psy_rd=1.03:0.06 / mixed_ref=1 / me_range=48 / chroma_me=1 / trellis=2 / 8x8dct=1 / cqm=0 / deadzone=21,11 / fast_pskip=0 / chroma_qp_offset=-3 / threads=9 / lookahead_threads=2 / sliced_threads=0 / nr=0 / decimate=1 / interlaced=0 / bluray_compat=0 / constrained_intra=0 / bframes=11 / b_pyramid=2 / b_adapt=2 / b_bias=0 / direct=3 / weightb=1 / open_gop=0 / weightp=2 / keyint=250 / keyint_min=23 / scenecut=40 / intra_refresh=0 / rc_lookahead=60 / rc=2pass / mbtree=0 / bitrate=1819 / ratetol=1.0 / qcomp=0.70 / qpmin=0 / qpmax=69 / qpstep=4 / cplxblur=20.0 / qblur=0.5 / vbv_maxrate=14000 / vbv_bufsize=14000 / nal_hrd=none / filler=0 / ip_ratio=1.40 / pb_ratio=1.30 / aq=1:0.80
Language : English
Default : Yes
Forced : No
DURATION : 02:33:32.238000000
NUMBER_OF_FRAMES : 396738
NUMBER_OF_BYTES : 221237402
_STATISTICS_WRITING_APP : mkvmerge v19.0.0 ('Brave Captain') 64-bit
_STATISTICS_WRITING_DATE_UTC : 2018-04-06 03:46:43
_STATISTICS_TAGS : BPS DURATION NUMBER_OF_FRAMES NUMBER_OF_BYTES
Audio #1
ID : 1
Format : AAC
Format/Info : Advanced Audio Codec
Format profile : LC
Codec ID : A_AAC
Duration : 2h 33mn
Channel(s) : 2 channels
Channel positions : Front: L R
Sampling rate : 44.1 KHz
Compression mode : Lossy
Language : Uzbek
Default : Yes
Forced : No
DURATION : 02:33:30.660000000
NUMBER_OF_FRAMES : 220835
NUMBER_OF_BYTES : 2094216480
_STATISTICS_WRITING_APP : mkvmerge v19.0.0 ('Brave Captain') 64-bit
_STATISTICS_WRITING_DATE_UTC : 2018-04-06 03:46:43
_STATISTICS_TAGS : BPS DURATION NUMBER_OF_FRAMES NUMBER_OF_BYTES
Audio #2
ID : 3
Format : AC-3
Format/Info : Audio Coding 3
Mode extension : CM (complete main)
Format settings, Endianness : Big
Codec ID : A_AC3
Duration : 2h 33mn
Bit rate mode : Constant
Bit rate : 448 Kbps
Channel(s) : 6 channels
Channel positions : Front: L C R, Side: L R, LFE
Sampling rate : 48.0 KHz
Bit depth : 16 bits
Compression mode : Lossy
Stream size : 492 MiB (15%)
Title : Dub | DD 5.1 @ 448 kbps - Blu-Ray CEE
Language : Russian
Default : No
Forced : No
Audio #3
ID : 4
Format : AC-3
Format/Info : Audio Coding 3
Mode extension : CM (complete main)
Format settings, Endianness : Big
Codec ID : A_AC3
Duration : 2h 33mn
Bit rate mode : Constant
Bit rate : 448 Kbps
Channel(s) : 6 channels
Channel positions : Front: L C R, Side: L R, LFE
Sampling rate : 48.0 KHz
Bit depth : 16 bits
Compression mode : Lossy
Stream size : 492 MiB (15%)
Title : Original | DD 5.1 @ 448 kbps
Language : English
Default : No
Forced : No
Text #1
ID : 5
Format : UTF-8
Codec ID : S_TEXT/UTF8
Codec ID/Info : UTF-8 Plain Text
Title : Forced
Language : Russian
Default : Yes
Forced : No
Text #2
ID : 6
Format : UTF-8
Codec ID : S_TEXT/UTF8
Codec ID/Info : UTF-8 Plain Text
Language : Russian
Default : No
Forced : No
Text #3
ID : 7
Format : UTF-8
Codec ID : S_TEXT/UTF8
Codec ID/Info : UTF-8 Plain Text
Title : Forced
Language : Ukrainian
Default : No
Forced : No
Text #4
ID : 8
Format : UTF-8
Codec ID : S_TEXT/UTF8
Codec ID/Info : UTF-8 Plain Text
Language : Ukrainian
Default : No
Forced : No
Text #5
ID : 9
Format : UTF-8
Codec ID : S_TEXT/UTF8
Codec ID/Info : UTF-8 Plain Text
Language : English
Default : No
Forced : No
Menu
00:00:00.000 : en:(01)00:00:00:000
00:05:28.494 : en:(02)00:05:28:494
00:12:13.941 : en:(03)00:12:13:941
00:14:57.146 : en:(04)00:14:57:146
00:18:43.205 : en:(05)00:18:43:205
00:22:30.515 : en:(06)00:22:30:515
00:27:36.029 : en:(07)00:27:36:029
00:32:04.631 : en:(08)00:32:04:631
00:37:48.224 : en:(09)00:37:48:224
00:44:48.352 : en:(10)00:44:48:352
00:49:31.760 : en:(11)00:49:31:760
00:54:55.375 : en:(12)00:54:55:375
01:00:00.305 : en:(13)01:00:00:305
01:03:09.660 : en:(14)01:03:09:660
01:05:57.161 : en:(15)01:05:57:161
01:09:13.691 : en:(16)01:09:13:691
01:14:00.102 : en:(17)01:14:00:102
01:21:09.781 : en:(18)01:21:09:781
01:26:31.477 : en:(19)01:26:31:477
01:33:37.403 : en:(20)01:33:37:403
01:39:57.324 : en:(21)01:39:57:324
01:43:16.273 : en:(22)01:43:16:273
01:48:24.748 : en:(23)01:48:24:748
01:52:30.118 : en:(24)01:52:30:118
01:56:53.673 : en:(25)01:56:53:673
02:02:11.741 : en:(26)02:02:11:741
02:08:33.539 : en:(27)02:08:33:539
02:15:00.300 : en:(28)02:15:00:300
02:19:08.048 : en:(29)02:19:08:048
02:23:54.125 : en:(30)02:23:54:125
02:33:30.659 : en:(31)02:33:30:659

Lavhalar

Garry Potter va Ajal tuhfasi 1 Qism|Гарри Поттер и дары смерти: Часть 1 | Harry Potter and the deathly hallows: Part 1 | 2010

--Chiqqan yili: 2010
Davlat: AQSh, Buyuk Britaniya
Janr: Fentezi, sarguzasht, Oilaviy
Davomiyligi: 02:26:06
Tarjima: Professional (dublyaj qilingan)
Rejissyor: Kris Kolambus
Rollarda: Deniel Redkliff, Rupert Grint, Emma Uotson, Tom Felton, Richard Xarris, Meggi Smit, Robbi Koltreyn, Saunders Triplets, Fiona Shou, Garri Melling.--Tavsif:Garri Potter hayotda eng dahshatli sinovni kutmoqda - Voldemort bilan o'lik jang. Yordamni kutish uchun hech kim yo'q - Garri yolg'iz, har qachongidan ham ko'proq ... Garrining do'stlari va dushmanlari kutilmagan holda paydo bo'ladi. Yaxshi va yomonlik chegarasi tobora ko'proq hayajonga aylanadi ...
Qo'sh. ma'lumot: Mavjud emas--Videoning sifati: BDRip-AVC
Video format: MKV
Video: AVC, 1080x450, 23.976 fps, 1819 Kbps
Audio#1: 48 kHz, AC3 Dolby Digital, 3/2 (L,C,R,l,r) + LFE ch, 448.00 kbps | RUS
Audio#2: 48 kHz, AC3 Dolby Digital, 3/2 (L,C,R,l,r) + LFE ch, 448.00 kbps | ENG
Audio#3: 44 kHz, AAC Dolby Digital, 3/2 (L,C,R,l,r) + LFE ch, 448.00 kbps | UZB
Subtitrlar#1: Ruscha (to'liq)
Subtitrlar#2: Inglizcha (Full + SDH)--

Media Info

General
Unique ID : 333548414993934633450623160679838171213 (0xFAEF168964F654AE71F460AAB526C04D)
Complete name : E:\torrent\Гарри Поттер Коллекция Harry Potter Collection (2001-2011) BDRip-AVC от Tulkin [2001-2011\07.Harry.Potter.va.Ajal.tuhfasi.1.mkv
Format : Matroska
Format version : Version 4 / Version 2
File size : 3.11 GiB
Duration : 2h 26mn
Overall bit rate : 3 048 Kbps
Movie name : Harry Potter and the Deathly Hallows: Part 1 (2010) - HELLYWOOD
Encoded date : UTC 2018-04-06 03:49:22
Writing application : mkvmerge v19.0.0 ('Brave Captain') 64-bit
Writing library : libebml v1.3.5 + libmatroska v1.4.8
DURATION : 02:21:06.540000000
NUMBER_OF_FRAMES : 1611
NUMBER_OF_BYTES : 57373
_STATISTICS_WRITING_APP : mkvmerge v19.0.0 ('Brave Captain') 64-bit
_STATISTICS_WRITING_DATE_UTC : 2018-04-06 03:49:22
_STATISTICS_TAGS : BPS DURATION NUMBER_OF_FRAMES NUMBER_OF_BYTES
Attachment : Yes
Video
ID : 1
Format : AVC
Format/Info : Advanced Video Codec
Format profile : High@L4.1
Format settings, CABAC : Yes
Format settings, ReFrames : 10 frames
Codec ID : V_MPEG4/ISO/AVC
Duration : 2h 26mn
Nominal bit rate : 1 956 Kbps
Width : 1 080 pixels
Height : 450 pixels
Display aspect ratio : 2.40:1
Frame rate mode : Constant
Frame rate : 23.976 fps
Color space : YUV
Chroma subsampling : 4:2:0
Bit depth : 8 bits
Scan type : Progressive
Bits/(Pixel*Frame) : 0.168
Title : potroks
Writing library : x264 core 146 r2538 121396c
Encoding settings : cabac=1 / ref=10 / deblock=1:-2:-2 / analyse=0x3:0x113 / me=umh / subme=11 / psy=1 / psy_rd=1.02:0.05 / mixed_ref=1 / me_range=48 / chroma_me=1 / trellis=2 / 8x8dct=1 / cqm=0 / deadzone=21,11 / fast_pskip=0 / chroma_qp_offset=-3 / threads=9 / lookahead_threads=2 / sliced_threads=0 / nr=0 / decimate=1 / interlaced=0 / bluray_compat=0 / constrained_intra=0 / bframes=11 / b_pyramid=2 / b_adapt=2 / b_bias=0 / direct=3 / weightb=1 / open_gop=0 / weightp=2 / keyint=250 / keyint_min=23 / scenecut=40 / intra_refresh=0 / rc_lookahead=60 / rc=2pass / mbtree=0 / bitrate=1956 / ratetol=1.0 / qcomp=0.70 / qpmin=0 / qpmax=69 / qpstep=4 / cplxblur=20.0 / qblur=0.5 / vbv_maxrate=14000 / vbv_bufsize=14000 / nal_hrd=none / filler=0 / ip_ratio=1.40 / pb_ratio=1.30 / aq=1:0.80
Language : English
Default : Yes
Forced : No
DURATION : 02:26:04.589000000
NUMBER_OF_FRAMES : 210140
NUMBER_OF_BYTES : 2142701293
_STATISTICS_WRITING_APP : mkvmerge v19.0.0 ('Brave Captain') 64-bit
_STATISTICS_WRITING_DATE_UTC : 2018-04-06 03:49:22
_STATISTICS_TAGS : BPS DURATION NUMBER_OF_FRAMES NUMBER_OF_BYTES
Audio #1
ID : 2
Format : AC-3
Format/Info : Audio Coding 3
Mode extension : CM (complete main)
Format settings, Endianness : Big
Codec ID : A_AC3
Duration : 2h 26mn
Bit rate mode : Constant
Bit rate : 448 Kbps
Channel(s) : 6 channels
Channel positions : Front: L C R, Side: L R, LFE
Sampling rate : 48.0 KHz
Bit depth : 16 bits
Compression mode : Lossy
Stream size : 468 MiB (15%)
Title : Dub | DD 5.1 @ 448 kbps - Bli-Ray CEE
Language : Russian
Default : Yes
Forced : No
DURATION : 02:26:06.299000000
NUMBER_OF_FRAMES : 377533
NUMBER_OF_BYTES : 210900366
_STATISTICS_WRITING_APP : mkvmerge v19.0.0 ('Brave Captain') 64-bit
_STATISTICS_WRITING_DATE_UTC : 2018-04-06 03:49:22
_STATISTICS_TAGS : BPS DURATION NUMBER_OF_FRAMES NUMBER_OF_BYTES
Audio #2
ID : 3
Format : AC-3
Format/Info : Audio Coding 3
Mode extension : CM (complete main)
Format settings, Endianness : Big
Codec ID : A_AC3
Duration : 2h 26mn
Bit rate mode : Constant
Bit rate : 448 Kbps
Channel(s) : 6 channels
Channel positions : Front: L C R, Side: L R, LFE
Sampling rate : 48.0 KHz
Bit depth : 16 bits
Compression mode : Lossy
Stream size : 468 MiB (15%)
Title : Original | DD 5.1 @ 448 kbps
Language : English
Default : No
Forced : No
Audio #3
ID : 11
Format : AAC
Format/Info : Advanced Audio Codec
Format profile : LC
Codec ID : A_AAC
Duration : 2h 26mn
Channel(s) : 2 channels
Channel positions : Front: L R
Sampling rate : 44.1 KHz
Compression mode : Lossy
Language : Uzbek
Default : No
Forced : No
Text #1
ID : 4
Format : UTF-8
Codec ID : S_TEXT/UTF8
Codec ID/Info : UTF-8 Plain Text
Title : Forced
Language : Russian
Default : Yes
Forced : No
Text #2
ID : 5
Format : UTF-8
Codec ID : S_TEXT/UTF8
Codec ID/Info : UTF-8 Plain Text
Title : SDI Media Group
Language : Russian
Default : No
Forced : No
Text #3
ID : 6
Format : UTF-8
Codec ID : S_TEXT/UTF8
Codec ID/Info : UTF-8 Plain Text
Title : R5
Language : Russian
Default : No
Forced : No
Text #4
ID : 7
Format : UTF-8
Codec ID : S_TEXT/UTF8
Codec ID/Info : UTF-8 Plain Text
Title : Notabenoid
Language : Russian
Default : No
Forced : No
Text #5
ID : 8
Format : UTF-8
Codec ID : S_TEXT/UTF8
Codec ID/Info : UTF-8 Plain Text
Language : Ukrainian
Default : No
Forced : No
Text #6
ID : 9
Format : UTF-8
Codec ID : S_TEXT/UTF8
Codec ID/Info : UTF-8 Plain Text
Title : Full
Language : English
Default : No
Forced : No
Text #7
ID : 10
Format : UTF-8
Codec ID : S_TEXT/UTF8
Codec ID/Info : UTF-8 Plain Text
Title : SDH
Language : English
Default : No
Forced : No
Menu
00:00:00.000 : en:Under Covers Prologue
00:01:40.100 : en:Aunt Marge's Big Mistake
00:06:36.229 : en:The Knight Bus
00:12:45.931 : en:The Leaky Cauldron
00:14:52.516 : en:The Monster Book of Monsters
00:16:12.513 : en:In Grave Danger
00:18:56.218 : en:The Dementor
00:23:50.387 : en:Welcome and Warning
00:28:50.729 : en:Tea Leaves
00:31:21.838 : en:Buckbeak
00:38:50.161 : en:Boggart in the Wardrobe
00:44:45.307 : en:Talent for Trouble
00:47:37.813 : en:Flight of the Fat Lady
00:49:39.935 : en:Substitute Teacher
00:53:42.844 : en:Grim Defeat
00:57:28.403 : en:The Marauder's Map
01:01:23.721 : en:Who's There
01:03:22.924 : en:I Hope He Finds Me
01:07:10.985 : en:The Patronus
01:11:53.475 : en:Seeing the Impossible
01:19:10.078 : en:Professor Trelawney's Prediction
01:22:29.945 : en:Witnesses to an Execution
01:27:30.870 : en:The Whomping Willow
01:30:13.366 : en:Sirius Black
01:34:19.028 : en:Peter Pettigrew
01:36:56.894 : en:Friends Become Foes
01:42:24.471 : en:The Dementor's Kiss
01:45:40.334 : en:Hermione's Secret
01:50:03.597 : en:Onlookers to the Rescue
01:55:33.343 : en:Saving Lives
02:00:07.408 : en:Truly Seen, Truly Free
02:03:16.055 : en:Two Places at Once
02:06:02.513 : en:Mischief Managed
02:08:42.923 : en:The Firebolt
02:09:47.404 : en:End Credits Map

Lavhalar

Garry Potter va Ajal tuhfasi 2 Qism|Гарри Поттер и дары смерти: Часть 2 / Harry Potter and the deathly hallows: Part 2 | 2011

--Chiqqan yili: 2011
Davlat: AQSh, Buyuk Britaniya
Janr: Fentezi, sarguzasht, Oilaviy
Davomiyligi: 02:10:29
Tarjima: Professional (dublyaj qilingan)
Rejissyor: Kris Kolambus
Rollarda: Deniel Redkliff, Rupert Grint, Emma Uotson, Tom Felton, Richard Xarris, Meggi Smit, Robbi Koltreyn, Saunders Triplets, Fiona Shou, Garri Melling.--Tavsif:Ajablanarli oxirgi bobda, sehrgar dunyosining yaxshi va yomon kuchlari o'rtasidagi jang umumiy urushga aylanadi. Tikanlar hech qachon bunday yuksak darajada bo'lmagan va boshpana izlash juda murakkab. Va ehtimol, bu Voland de Mort bilan oxirgi jangda hamma narsani qurbon qilishga majbur bo'ladigan Garri Potter. Qahramonimiz dunyoni qutqarishi mumkinmi? Va bu erda tugaydi.
Qo'sh. ma'lumot: Mavjud emas--Videoning sifati: BDRip-AVC
Video format: MKV
Video: AVC, 1080x450, 23.976 fps, 1956 Kbps
Audio#1: 48 kHz, AC3 Dolby Digital, 3/2 (L,C,R,l,r) + LFE ch, 448.00 kbps | RUS
Audio#2: 48 kHz, AC3 Dolby Digital, 3/2 (L,C,R,l,r) + LFE ch, 448.00 kbps | ENG
Audio#3: 44 kHz, AAC Dolby Digital, 3/2 (L,C,R,l,r) + LFE ch, 448.00 kbps | UZB
Subtitrlar#1: Ruscha (to'liq)
Subtitrlar#2: Inglizcha (Full + SDH)--

Media Info

General
Unique ID : 339760914896795389333503538713546930280 (0xFF9B926E25B450D5FD5A347E48D33868)
Complete name : E:\torrent\Гарри Поттер Коллекция Harry Potter Collection (2001-2011) BDRip-AVC от Tulkin [2001-2011\08.Harry.Potter.va.Ajal.tuhfasi.2.mkv
Format : Matroska
Format version : Version 4 / Version 2
File size : 3.09 GiB
Duration : 2h 10mn
Overall bit rate : 3 392 Kbps
Movie name : Harry Potter and the Deathly Hallows: Part 2 (2011) - HELLYWOOD
Encoded date : UTC 2018-04-06 03:51:27
Writing application : mkvmerge v19.0.0 ('Brave Captain') 64-bit
Writing library : libebml v1.3.5 + libmatroska v1.4.8
DURATION : 02:10:28.375000000
NUMBER_OF_FRAMES : 1029
NUMBER_OF_BYTES : 39727
_STATISTICS_WRITING_APP : mkvmerge v19.0.0 ('Brave Captain') 64-bit
_STATISTICS_WRITING_DATE_UTC : 2018-04-06 03:51:27
_STATISTICS_TAGS : BPS DURATION NUMBER_OF_FRAMES NUMBER_OF_BYTES
Attachment : Yes / Yes
Video
ID : 2
Format : AVC
Format/Info : Advanced Video Codec
Format profile : High@L4.1
Format settings, CABAC : Yes
Format settings, ReFrames : 10 frames
Codec ID : V_MPEG4/ISO/AVC
Duration : 2h 10mn
Nominal bit rate : 2 298 Kbps
Width : 1 080 pixels
Height : 450 pixels
Display aspect ratio : 2.40:1
Frame rate mode : Constant
Frame rate : 23.976 fps
Color space : YUV
Chroma subsampling : 4:2:0
Bit depth : 8 bits
Scan type : Progressive
Bits/(Pixel*Frame) : 0.197
Title : potroks
Writing library : x264 core 146 r2538 121396c
Encoding settings : cabac=1 / ref=10 / deblock=1:-2:-2 / analyse=0x3:0x113 / me=umh / subme=11 / psy=1 / psy_rd=1.00:0.05 / mixed_ref=1 / me_range=48 / chroma_me=1 / trellis=2 / 8x8dct=1 / cqm=0 / deadzone=21,11 / fast_pskip=0 / chroma_qp_offset=-3 / threads=9 / lookahead_threads=2 / sliced_threads=0 / nr=0 / decimate=1 / interlaced=0 / bluray_compat=0 / constrained_intra=0 / bframes=11 / b_pyramid=2 / b_adapt=2 / b_bias=0 / direct=3 / weightb=1 / open_gop=0 / weightp=2 / keyint=250 / keyint_min=23 / scenecut=40 / intra_refresh=0 / rc_lookahead=60 / rc=2pass / mbtree=0 / bitrate=2298 / ratetol=1.0 / qcomp=0.70 / qpmin=0 / qpmax=69 / qpstep=4 / cplxblur=20.0 / qblur=0.5 / vbv_maxrate=14000 / vbv_bufsize=14000 / nal_hrd=none / filler=0 / ip_ratio=1.35 / pb_ratio=1.30 / aq=1:0.80
Language : English
Default : Yes
Forced : No
DURATION : 02:10:29.327000000
NUMBER_OF_FRAMES : 337181
NUMBER_OF_BYTES : 190460905
_STATISTICS_WRITING_APP : mkvmerge v19.0.0 ('Brave Captain') 64-bit
_STATISTICS_WRITING_DATE_UTC : 2018-04-06 03:51:27
_STATISTICS_TAGS : BPS DURATION NUMBER_OF_FRAMES NUMBER_OF_BYTES
Audio #1
ID : 1
Format : AAC
Format/Info : Advanced Audio Codec
Format profile : LC
Codec ID : A_AAC
Duration : 2h 10mn
Channel(s) : 2 channels
Channel positions : Front: L R
Sampling rate : 44.1 KHz
Compression mode : Lossy
Language : Uzbek
Default : Yes
Forced : No
DURATION : 02:10:26.819000000
NUMBER_OF_FRAMES : 187656
NUMBER_OF_BYTES : 2248081598
_STATISTICS_WRITING_APP : mkvmerge v19.0.0 ('Brave Captain') 64-bit
_STATISTICS_WRITING_DATE_UTC : 2018-04-06 03:51:27
_STATISTICS_TAGS : BPS DURATION NUMBER_OF_FRAMES NUMBER_OF_BYTES
Audio #2
ID : 3
Format : AC-3
Format/Info : Audio Coding 3
Mode extension : CM (complete main)
Format settings, Endianness : Big
Codec ID : A_AC3
Duration : 2h 10mn
Bit rate mode : Constant
Bit rate : 448 Kbps
Channel(s) : 6 channels
Channel positions : Front: L C R, Side: L R, LFE
Sampling rate : 48.0 KHz
Bit depth : 16 bits
Compression mode : Lossy
Stream size : 418 MiB (13%)
Title : Dub | DD5.1 @ 448 kbps - Blu-Ray CEE
Language : Russian
Default : No
Forced : No
Audio #3
ID : 4
Format : AC-3
Format/Info : Audio Coding 3
Mode extension : CM (complete main)
Format settings, Endianness : Big
Codec ID : A_AC3
Duration : 2h 10mn
Bit rate mode : Constant
Bit rate : 448 Kbps
Channel(s) : 6 channels
Channel positions : Front: L C R, Side: L R, LFE
Sampling rate : 48.0 KHz
Bit depth : 16 bits
Compression mode : Lossy
Stream size : 418 MiB (13%)
Title : Original | DD 5.1 @ 448 kbps
Language : English
Default : No
Forced : No
Text #1
ID : 5
Format : UTF-8
Codec ID : S_TEXT/UTF8
Codec ID/Info : UTF-8 Plain Text
Title : Forced
Language : Russian
Default : Yes
Forced : No
Text #2
ID : 6
Format : UTF-8
Codec ID : S_TEXT/UTF8
Codec ID/Info : UTF-8 Plain Text
Title : Blu-Ray
Language : Russian
Default : No
Forced : No
Text #3
ID : 7
Format : UTF-8
Codec ID : S_TEXT/UTF8
Codec ID/Info : UTF-8 Plain Text
Title : Voronine
Language : Russian
Default : No
Forced : No
Text #4
ID : 8
Format : UTF-8
Codec ID : S_TEXT/UTF8
Codec ID/Info : UTF-8 Plain Text
Title : Full
Language : English
Default : No
Forced : No
Text #5
ID : 9
Format : UTF-8
Codec ID : S_TEXT/UTF8
Codec ID/Info : UTF-8 Plain Text
Title : SDH
Language : English
Default : No
Forced : No
Text #6
ID : 10
Format : UTF-8
Codec ID : S_TEXT/UTF8
Codec ID/Info : UTF-8 Plain Text
Title : SDH-Colored
Language : English
Default : No
Forced : No
Menu
00:00:00.000 : en:Chapter 1
00:02:58.220 : en:Chapter 2
00:06:21.172 : en:Chapter 3
00:10:21.871 : en:Chapter 4
00:14:27.992 : en:Chapter 5
00:20:05.621 : en:Chapter 6
00:22:47.783 : en:Chapter 7
00:25:38.620 : en:Chapter 8
00:30:46.803 : en:Chapter 9
00:34:33.655 : en:Chapter 10
00:40:32.263 : en:Chapter 11
00:45:52.249 : en:Chapter 12
00:50:15.471 : en:Chapter 13
00:54:41.027 : en:Chapter 14
00:59:01.246 : en:Chapter 15
01:03:42.068 : en:Chapter 16
01:07:06.063 : en:Chapter 17
01:11:24.488 : en:Chapter 18
01:14:38.932 : en:Chapter 19
01:23:40.849 : en:Chapter 20
01:29:17.727 : en:Chapter 21
01:31:25.021 : en:Chapter 22
01:36:37.666 : en:Chapter 23
01:41:09.104 : en:Chapter 24
01:46:42.312 : en:Chapter 25
01:50:18.361 : en:Chapter 26
01:54:16.683 : en:Chapter 27
01:58:12.877 : en:Chapter 28

Lavhalar



So‘ngi marta tahrirlandi: Tulkin (2018-04-06 14:59), Jami tahrirlangan 5 marta
Profil ShX

UmarShoh

Jins:
Yigit
Staj:
8 oy 12 kun
Xabarlar:
371
Taqiq:

Baraka toping oka! bf
Zo'r chiqibti !

Mavzu yaratish 05-Apr-2018 20:25 (6 daqiqa o‘tgach)

Iqitibos

Profil ShX

Unofficial

Jins:
Yigit
Staj:
7 oy 21 kun
Xabarlar:
423

Qayerdan: Nukus

Taqiq:

2095Garry Potter va Ajal tuhfasi 2 Qism|Гарри Поттер и дары смерти: Часть 2 / Harry Potter and the deathly hallows: Part 2 | 2011
Bu yerdagi video ma'lumotlari skrinshotdagi bilan to'gri kelmayapti-
Garry Potter va Ajal tuhfasi 1 Qism|Гарри Поттер и дары смерти: Часть 1 | Harry Potter and the deathly hallows: Part 1 | 2010
Garry Potter va Tilsim Shaxzodasi |Гарри Поттер и принц-полукровка | Harry Potter and the half-blood prince | 2009
Garry Potter va Alanga Qubuki |Гарри Поттер и кубок огня | Harry Potter and the goblet of fire | 2005
Garry Potter va Finekis Jamiyat |Гарри Поттер и орден Феникса | Harry Potter and the order of the Phoenix | 2007
Garry Potter va Askaban Maxbusi |Гарри Поттер и узник Азкабана | Harry Potter and the prisoner of Azkaban | 2004
Garry Potter Va Maxvi hujra |Гарри Поттер и тайная комната | Harry Potter and the chamber of secrets | 2002
Bu yerda ham shu ahvol!-Media info dagi ma'lumot va Video: ma'lumotlari to'gri kelishi kerak!
https://img.alltor.me/img/2018-04/05/yu9hm01otwcob4vs7148065ok.jpg

Rasmlarni (Poster va skrinshot) img.uz dan yuklang!
Bu rasmniyam kichiraytirsangiz zo'r bo'lardi!

Mavzu yaratish 05-Apr-2018 20:31 (5 daqiqa o‘tgach)

Iqitibos

Profil ShX

N.U.R.I.K.B.E.K

Jins:
Yigit
Staj:
1 yil
Xabarlar:
302

Qayerdan: Jizzax. Paxtakor

Taqiq:

Tulkin, qachon razdacha bo'ladi

Mavzu yaratish 05-Apr-2018 22:41 (2 soat 10 daqiqa o‘tgach)

Iqitibos

Profil ShX

Tulkin ®

Jins:
Yigit
Staj:
11 oy 5 kun
Xabarlar:
46

Qayerdan: Kumkurgan

Taqiq:

IMG.UZ YAXWI IWLAMAYDIKU

MRLGdan ma`lumot


Biz taklif qilayotgan foto hosting eng yaxshi ishlayidigan hosting.

Mavzu yaratish 06-Apr-2018 08:51 (10 soat o‘tgach)

Iqitibos

Profil ShX

MRLG

Jins:
Yigit
Staj:
1 yil 3 oy
Xabarlar:
523
Taqiq:

Torrentni o`zboshimchalik bilan ro`yxatdan chiqarib yubormang. Undan ko`ra xatolarini to`g`rilang. Agar ertagacha to`g`rilamasangiz, tarqatmangiz arxivga jo`natiladi.

Mavzu yaratish 06-Apr-2018 09:20 (29 daqiqa o‘tgach)

Iqitibos

Profil ShX

Tulkin ®

Jins:
Yigit
Staj:
11 oy 5 kun
Xabarlar:
46

Qayerdan: Kumkurgan

Taqiq:

mayli tugirlayman

Mavzu yaratish 06-Apr-2018 10:42 (1 soat 21 daqiqa o‘tgach)

Iqitibos

Profil ShX

N.U.R.I.K.B.E.K

Jins:
Yigit
Staj:
1 yil
Xabarlar:
302

Qayerdan: Jizzax. Paxtakor

Taqiq:

Tulkin, razdacha bo'ladimi tezlik qanaqa sizda

Mavzu yaratish 06-Apr-2018 10:49 (6 daqiqa o‘tgach)

Iqitibos

Profil ShX

Tulkin ®

Jins:
Yigit
Staj:
11 oy 5 kun
Xabarlar:
46

Qayerdan: Kumkurgan

Taqiq:

N.U.R.I.K.B.E.K, 2mb tezligim

Mavzu yaratish 06-Apr-2018 11:34 (45 daqiqa o‘tgach)

Iqitibos

Profil ShX

MRLG

Jins:
Yigit
Staj:
1 yil 3 oy
Xabarlar:
523
Taqiq:

Tulkin, Barchasida Video ma'lumot qatorida bir xil ma'lumot kiritilgan
Video: AVC, 1016x422, 23.976 fps, 1838 Kbps
Media Infoda yozilganlaridek o`zgartirib chiqing.
Videoning o`lchamlari hammasida har xil.
Audio yo`lakchalar ham huddi shunday. Hammasida uzb ovoz yo`lakchasini ohirida deb ko`rsatgansiz. Media Infoda buni aksi.

Mavzu yaratish 06-Apr-2018 11:49 (14 daqiqa o‘tgach)

Iqitibos

Profil ShX

N.U.R.I.K.B.E.K

Jins:
Yigit
Staj:
1 yil
Xabarlar:
302

Qayerdan: Jizzax. Paxtakor

Taqiq:

Tulkin, ip ni berinchi razdacha bo'mayapti

Mavzu yaratish 06-Apr-2018 12:21 (31 daqiqa o‘tgach)

Iqitibos

Profil ShX

Vampire_1987

Jins:
Ko‘rsatilmagan
Staj:
1 yil 2 oy
Xabarlar:
115
Taqiq:

Tulkin, Salom Reliz Uchun Raxmat Ommo Bitta Savolim Bor Agar Siz Qoshni trekerdan Olganingizni uzb larini Jammalamaga Qo'shgan Bo'lsangiz Avozlar Yaxshi Tushganmi Shularni Tekshirib kordingizmi ? yani O'zingiz korib chiqdingizmi ? ayniqsa 1chi chastini ?

Mavzu yaratish 06-Apr-2018 12:49 (28 daqiqa o‘tgach)

Iqitibos

Profil ShX

Tulkin ®

Jins:
Yigit
Staj:
11 oy 5 kun
Xabarlar:
46

Qayerdan: Kumkurgan

Taqiq:

hammasini uzim kurib chiqdim tugirlaganman

Mavzu yaratish 06-Apr-2018 15:01 (2 soat 11 daqiqa o‘tgach)

Iqitibos

Profil ShX

Tulkin ®

Jins:
Yigit
Staj:
11 oy 5 kun
Xabarlar:
46

Qayerdan: Kumkurgan

Taqiq:

N.U.R.I.K.B.E.K, ip adresni qayerdan kurardi

Mavzu yaratish 06-Apr-2018 15:03 (1 daqiqa o‘tgach)

Iqitibos

Profil ShX

Unofficial

Jins:
Yigit
Staj:
7 oy 21 kun
Xabarlar:
423

Qayerdan: Nukus

Taqiq:

2135213.230.92.109 33239
sizning ip va port raqamlaringiz!

Mavzu yaratish 06-Apr-2018 15:42 (39 daqiqa o‘tgach)

Iqitibos

Profil ShX
Xabarlarni ko‘rsatish:    

Hozirgi vaqt: 17-Noy 17:57

Vaqtlar farqi: UTC + 5



Siz mavzu yaratishingiz mumkin emas
Siz xabarlarga javob qaytarishingiz mumkin emas
Siz o‘z xabarlaringizni tahrirlashingiz mumkin emas
Siz o‘z xabarlaringizni o‘chirishingiz mumkin emas
Siz so‘rovlarda ovoz berishingiz mumkin emas
Siz xabalarga fayllarni biriktirishingiz mumkin emas
Siz fayllarni ko‘chirishingiz mumkin emas