˂
˃
Tarqatmalar statistikasi
Yoʻq
 
     
 
 

azizbek ®

Jins:
Yigit
Staj:
1 yil
Xabarlar:
139

Qayerdan: Surxondaryo

Taqiq:

Geoshtorm
Qo'shimcha ma'lumot:
Davlat: AQSH
Janr: fantastika, jangari, triller
Chiqqan yili: 2017
Davomiyligi: 1 soat 49 min
Tarjima: Ko'p ovozli kadr ortidan o'zbek tilida(Favvora studio)
Rejissiyor: Dean Devlin
Rollarda:
Gerard Butler, Jim Sturgess, Abbie Cornish, Alexandra Maria Lara, Daniel Wu, Eugenio Derbez, Amr Waked, Adepero Oduye, Andy Garcia, Ed Harris, Robert Sheehan, Richard Schiff, Mare Winningham, Zazie Beetz
Tarif: Katastrofik iqlim o'zgarishi Yerning omon qolishiga jiddiy xavf tug'diradi, dunyo hukumatlari birlashadilar va Gollandiyalik deb nomlangan dasturini yaratadilar: sayyoramizni o'rab turgan yo'ldoshlardan iborat dunyodagi tabiiy ofatlarni bartaraf etishga mo'ljallangan geoinjinering texnologiyalari. Uch yil sayyoramizni muvaffaqiyatli himoya qilganidan so'ng, muammolar boshlanadi. Ikki birodarlar, Geostorm sayyorani ostin-ustun qilgunga qadar dasturni to'g'ri ishlashini ta'minlash bilan mashg'ul bo'lishadi
Videoning sifati: HDRip
Videoning formati: mp4
Video: HEVC / 720x304 / 492 kb/s / 23.976 FPS
Audio: AAC / 128 kb/s / 2 channels / 44.1 kHz / 43.066 FPS / Favvora studio

MediaInfo

General
Complete name : D:\MEDIA\kino\uztreckers\Geostorm.2017.HDRip.uz.mp4
Format : MPEG-4
Format profile : Base Media
Codec ID : isom (isom/iso2/mp41)
File size : 489 MiB
Duration : 1 h 49 min
Overall bit rate : 627 kb/s
Encoded date : UTC 2018-02-24 14:10:35
Tagged date : UTC 2018-02-24 14:10:35
Writing application : Lavf57.81.100
Video
ID : 1
Format : HEVC
Format/Info : High Efficiency Video Coding
Format profile : Main@L4.1@Main
Codec ID : hev1
Codec ID/Info : High Efficiency Video Coding
Duration : 1 h 49 min
Bit rate : 492 kb/s
Width : 720 pixels
Height : 304 pixels
Display aspect ratio : 2.35:1
Frame rate mode : Constant
Frame rate : 23.976 (23976/1000) FPS
Color space : YUV
Chroma subsampling : 4:2:0
Bit depth : 8 bits
Scan type : Progressive
Bits/(Pixel*Frame) : 0.094
Stream size : 384 MiB (79%)
Writing library : x265 2.1:[Windows][MSVC 1800][32 bit] 8bit+10bit+12bit
Encoding settings : cpuid=1050111 / frame-threads=2 / numa-pools=4 / wpp / no-pmode / no-pme / no-psnr / no-ssim / log-level=2 / input-csp=1 / input-res=720x304 / interlace=0 / total-frames=0 / level-idc=41 / high-tier=0 / uhd-bd=0 / ref=3 / no-allow-non-conformance / no-repeat-headers / annexb / no-aud / no-hrd / info / hash=0 / no-temporal-layers / no-open-gop / min-keyint=23 / keyint=239 / bframes=3 / b-adapt=2 / b-pyramid / bframe-bias=0 / rc-lookahead=20 / lookahead-slices=0 / scenecut=40 / no-intra-refresh / ctu=64 / min-cu-size=8 / no-rect / no-amp / max-tu-size=32 / tu-inter-depth=1 / tu-intra-depth=1 / limit-tu=0 / rdoq-level=0 / dynamic-rd=0.00 / no-ssim-rd / signhide / no-tskip / nr-intra=0 / nr-inter=0 / no-constrained-intra / strong-intra-smoothing / max-merge=2 / limit-refs=3 / no-limit-modes / me=1 / subme=2 / merange=57 / temporal-mvp / weightp / no-weightb / no-analyze-src-pics / deblock=0:0 / sao / no-sao-non-deblock / rd=3 / no-early-skip / rskip / no-fast-intra / no-tskip-fast / no-cu-lossless / no-b-intra / rdpenalty=0 / psy-rd=2.00 / psy-rdoq=0.00 / no-rd-refine / analysis-reuse-mode=0 / no-lossless / cbqpoffs=0 / crqpoffs=0 / rc=abr / bitrate=487 / qcomp=0.60 / qpstep=4 / stats-write=0 / stats-read=0 / vbv-maxrate=2400 / vbv-bufsize=20000 / vbv-init=0.9 / ipratio=1.40 / pbratio=1.30 / aq-mode=1 / aq-strength=1.00 / cutree / zone-count=0 / no-strict-cbr / qg-size=64 / no-rc-grain / qpmax=69 / qpmin=0 / no-const-vbv / sar=1 / overscan=0 / videoformat=5 / range=0 / colorprim=2 / transfer=2 / colormatrix=2 / chromaloc=0 / display-window=0 / max-cll=0,0 / min-luma=0 / max-luma=255 / log2-max-poc-lsb=8 / vui-timing-info / vui-hrd-info / slices=1 / opt-qp-pps / opt-ref-list-length-pps / no-multi-pass-opt-rps / scenecut-bias=0.05 / no-opt-cu-delta-qp / no-aq-motion / no-hdr / no-hdr-opt / no-dhdr10-opt / analysis-reuse-level=5 / scale-factor=0 / refine-intra=0 / refine-inter=0 / refine-mv=0 / no-limit-sao / ctu-info=0
Encoded date : UTC 2018-02-24 14:10:35
Tagged date : UTC 2018-02-24 14:10:35
Audio
ID : 2
Format : AAC
Format/Info : Advanced Audio Codec
Format profile : LC
Codec ID : 40
Duration : 1 h 49 min
Bit rate mode : Constant
Bit rate : 128 kb/s
Channel(s) : 2 channels
Channel positions : Front: L R
Sampling rate : 44.1 kHz
Frame rate : 43.066 FPS (1024 SPF)
Compression mode : Lossy
Stream size : 99.7 MiB (20%)
Language : Uzbek
Default : Yes
Alternate group : 1
Encoded date : UTC 2018-02-24 14:10:35
Tagged date : UTC 2018-02-24 14:10:35


So‘ngi marta tahrirlandi: azizbek (2018-05-24 18:10), Jami tahrirlangan 1 marta
Profil ShX

MRLG

Jins:
Yigit
Staj:
1 yil 3 oy
Xabarlar:
526
Taqiq:

azizbek, Film to'liq tarjima qilinganmi? yoki boshidan yoki ohiridan uzilishlar bormi ? Internetga chiqqanlari to'liq emas ekan.

Mavzu yaratish 25-Fev-2018 09:57 (4 soat o‘tgach)

Iqitibos

Profil ShX

azizbek ®

Jins:
Yigit
Staj:
1 yil
Xabarlar:
139

Qayerdan: Surxondaryo

Taqiq:

MRLG, boshidagi 3-3,5 minuti yo'q

Mavzu yaratish 25-Fev-2018 10:24 (26 daqiqa o‘tgach)

Iqitibos

Profil ShX
Xabarlarni ko‘rsatish:    

Hozirgi vaqt: 11-Dek 20:39

Vaqtlar farqi: UTC + 5



Siz mavzu yaratishingiz mumkin emas
Siz xabarlarga javob qaytarishingiz mumkin emas
Siz o‘z xabarlaringizni tahrirlashingiz mumkin emas
Siz o‘z xabarlaringizni o‘chirishingiz mumkin emas
Siz so‘rovlarda ovoz berishingiz mumkin emas
Siz xabalarga fayllarni biriktirishingiz mumkin emas
Siz fayllarni ko‘chirishingiz mumkin emas