Tarqatmalar statistikasi
Ko‘chirmoqdaman: [ 1 ]
Ko‘chirib bo‘ldim: [ 4 ]
 
     
 
 

MRLG ®

Jins:
Yigit
Staj:
1 yil 1 oy
Xabarlar:
469
Taqiq:

Guvohlar / Первое убийство / First Kill -««When you only have one shot, don't miss»»- -
Chiqqan yili: 2017
Davlat: Kanada, AQSH, Buyuk Britaniya
Janr: jangari, triller
Davomiyligi: 01:41:42
Tarjima:
  • Ko'p ovozli, kadr ortidan professional tarjima ["Favvora Film"] studiyasi (O'zbek tilida)
  • Ko'p ovozli havaskorlar ["Paradox&Omskbird"] studiyasi (Rus tilida)
  • Original ["English"]
- Rejissiyor: Stiven S. Miller / Steven C. Miller- Rollarda:
-Bryus Uillis, Xeyden Kristensen, Ty Shelton, Megan Leonard, Getin Entoni, Uilyam DeMeo, Deb Dj. Girdler (Dottie), Tayler Djon Olson (Tom Davies), Shi Bakner (Charlie), Magi Avila, Kristin A. Day (Mabel), Martin Blenkouv (Forensics Officer)- Tavsif:
Film, bank o'g'rilari o'rtasida bo'lgan mo'jaro guvohi, kichkina bolanining o'g'rligi ishini olib borayotgan ofitser haqida.-Dunyodagi primierasi: 2017-yil 21-iyul
КиноПоиск: 5.186 (816)
IMDb: 4.90 (3787)- Sifat: BDRip
Format: AVI
Video: XviD, 720x304 (2.35:1), 1598 kbps, 23,976 fps, 0,305 bpp
Audio №1: MP3 / 2.0 / 48 kHz / 128 kbps / | UZB
Audio №2: AC3 / 2.0 / 48 kHz / 192 kbps / | RUS
Audio №3: AC3 / 2.0 / 48 kHz / 256 kbps / | ENG-

Media Info

General
Complete name                            : D:\Кино\Tarjima filmlar\Guvohlar (2017 - BDRip) MY5 + Rus + Eng (MRLG).avi
Format                                   : AVI
Format/Info                              : Audio Video Interleave
File size                                : 1.56 GiB
Duration                                 : 1 h 41 min
Overall bit rate                         : 2 194 kb/s
Writing application                      : VirtualDubMod 1.5.10.3 (build 2550/release)
Writing library                          : VirtualDubMod build 2550/release
Video
ID                                       : 0
Format                                   : MPEG-4 Visual
Format profile                           : Advanced Simple@L5
Format settings, BVOP                    : 1
Format settings, QPel                    : No
Format settings, GMC                     : No warppoints
Format settings, Matrix                  : Custom
Codec ID                                 : XVID
Codec ID/Hint                            : XviD
Duration                                 : 1 h 41 min
Bit rate                                 : 1 599 kb/s
Width                                    : 720 pixels
Height                                   : 304 pixels
Display aspect ratio                     : 2.35:1
Frame rate                               : 23.976 (24000/1001) FPS
Color space                              : YUV
Chroma subsampling                       : 4:2:0
Bit depth                                : 8 bits
Scan type                                : Progressive
Compression mode                         : Lossy
Bits/(Pixel*Frame)                       : 0.305
Stream size                              : 1.14 GiB (73%)
Writing library                          : XviD 73
Audio #1
ID                                       : 1
Format                                   : MPEG Audio
Format version                           : Version 1
Format profile                           : Layer 3
Mode                                     : Joint stereo
Mode extension                           : MS Stereo
Codec ID                                 : 55
Codec ID/Hint                            : MP3
Duration                                 : 1 h 41 min
Bit rate mode                            : Constant
Bit rate                                 : 128 kb/s
Channel(s)                               : 2 channels
Sampling rate                            : 48.0 kHz
Compression mode                         : Lossy
Stream size                              : 93.1 MiB (6%)
Alignment                                : Aligned on interleaves
Interleave, duration                     : 42  ms (1.00 video frame)
Interleave, preload duration             : 504  ms
Writing library                          : LAME3.100Є
Audio #2
ID                                       : 2
Format                                   : AC-3
Format/Info                              : Audio Coding 3
Mode extension                           : CM (complete main)
Format settings, Endianness              : Big
Codec ID                                 : 2000
Duration                                 : 1 h 41 min
Bit rate mode                            : Constant
Bit rate                                 : 192 kb/s
Channel(s)                               : 2 channels
Channel positions                        : Front: L R
Sampling rate                            : 48.0 kHz
Frame rate                               : 31.250 FPS (1536 spf)
Compression mode                         : Lossy
Stream size                              : 140 MiB (9%)
Alignment                                : Split accross interleaves
Interleave, duration                     : 42  ms (1.00 video frame)
Interleave, preload duration             : 500  ms
Audio #3
ID                                       : 3
Format                                   : AC-3
Format/Info                              : Audio Coding 3
Mode extension                           : CM (complete main)
Format settings, Endianness              : Big
Codec ID                                 : 2000
Duration                                 : 1 h 41 min
Bit rate mode                            : Constant
Bit rate                                 : 256 kb/s
Channel(s)                               : 2 channels
Channel positions                        : Front: L R
Sampling rate                            : 48.0 kHz
Frame rate                               : 31.250 FPS (1536 spf)
Compression mode                         : Lossy
Stream size                              : 186 MiB (12%)
Alignment                                : Split accross interleaves
Interleave, duration                     : 42  ms (1.00 video frame)
Interleave, preload duration             : 500  ms

Miniatyura

Bilasizmi?...

  • Filmga olish ishlari atigi 13 kun davom etgan.
SKRINSHOTLAR
- © Template by MRLG
Profil ShX
Xabarlarni ko‘rsatish:    

Hozirgi vaqt: 23-Sen 11:02

Vaqtlar farqi: UTC + 5



Siz mavzu yaratishingiz mumkin emas
Siz xabarlarga javob qaytarishingiz mumkin emas
Siz o‘z xabarlaringizni tahrirlashingiz mumkin emas
Siz o‘z xabarlaringizni o‘chirishingiz mumkin emas
Siz so‘rovlarda ovoz berishingiz mumkin emas
Siz xabalarga fayllarni biriktirishingiz mumkin emas
Siz fayllarni ko‘chirishingiz mumkin emas