˂
˃
Tarqatmalar statistikasi
Yoʻq
 
     
 
 

Vampire_1987 ®

Jins:
Ko‘rsatilmagan
Staj:
1 yil 3 oy
Xabarlar:
115
Taqiq:

-Guvohlar | Первое убийство | First Kill-- Davlat: AQSH
Janr: Jangari, triller
Chiqqan yili: 2017
Davomiyligi: 01:35:45
Tarjima: Professional (dublyaj qilingan) (O'zbek Tilida)
Tarjima haqida qo'shimcha ma'lumot:
Mualif Izohi: Filim TV Berganidek Holatda Reklamalar Olib Tashlangan!--Rejissiyor: Стивен С. Миллер / Steven C. Miller--Rollarda:Bryus Uillis, Xeyden Kristensen, Getin Entoni, Magi Avila, Sharlotta Kirk, Uilyam DeMeo, Tamara Belous, Xezer Yoxansen, Tayler Djon Olson, Chelsea Mee, Djessi Pruett, Brayan Volfman Blek Bouman--Tafsif: Фильм об опытном офицере, который расследует похищение мальчика, ставшего свидетелем разборки между банковскими грабителями. Вызволить ребенка так же торопится его молодой отец, вызывающий у полицейского серьезные подозрения - а не был ли он сам связан с этим ограблением?-- --Sifat: TVRip
Format: AVI
Video: XviD 688x288 25fps 955kbps
Audio: MP3 48000Hz stereo 128kbps--

Media Info

General
Format : AVI
Format/Info : Audio Video Interleave
File size : 749 MiB
Duration : 1 h 35 min
Overall bit rate : 1 094 kb/s
Writing application : VirtualDubMod 1.5.10.3 | www.virtualdub-fr.org || (build 2550/release)
Writing library : VirtualDubMod build 2550/release
Video
ID : 0
Format : MPEG-4 Visual
Format profile : Advanced Simple@L5
Format settings : BVOP1
Format settings, BVOP : 1
Format settings, QPel : No
Format settings, GMC : No warppoints
Format settings, Matrix : Default (MPEG)
Codec ID : XVID
Codec ID/Hint : XviD
Duration : 1 h 35 min
Bit rate : 956 kb/s
Width : 688 pixels
Height : 288 pixels
Display aspect ratio : 2.40:1
Frame rate : 25.000 FPS
Color space : YUV
Chroma subsampling : 4:2:0
Bit depth : 8 bits
Scan type : Progressive
Compression mode : Lossy
Bits/(Pixel*Frame) : 0.193
Stream size : 655 MiB (87%)
Writing library : XviD 73
Audio
ID : 1
Format : MPEG Audio
Format version : Version 1
Format profile : Layer 3
Codec ID : 55
Codec ID/Hint : MP3
Duration : 1 h 35 min
Bit rate mode : Constant
Bit rate : 128 kb/s
Channel(s) : 2 channels
Sampling rate : 48.0 kHz
Frame rate : 41.667 FPS (1152 SPF)
Compression mode : Lossy
Stream size : 87.7 MiB (12%)
Alignment : Aligned on interleaves
Interleave, duration : 40 ms (1.00 video frame)
Interleave, preload duratio : 504 ms
Writing library : LAME3.99r
Encoding settings : -m s -V 4 -q 0 -lowpass 17 -b 128
Profil ShX

Vampire_1987 ®

Jins:
Ko‘rsatilmagan
Staj:
1 yil 3 oy
Xabarlar:
115
Taqiq:

Striker Ip Manzil Imzoda Yozib Boraman Kiritib Boring Bog'lanadi albatta ) Xar Internet O'chib Yonganida O'zgartirib Boraman Imzoda Korsatib Boraman )

Mavzu yaratish 11-Mar-2018 13:22 (2 kun 20 soat o‘tgach)

Iqitibos

Profil ShX
Xabarlarni ko‘rsatish:    

Hozirgi vaqt: 11-Dek 21:44

Vaqtlar farqi: UTC + 5



Siz mavzu yaratishingiz mumkin emas
Siz xabarlarga javob qaytarishingiz mumkin emas
Siz o‘z xabarlaringizni tahrirlashingiz mumkin emas
Siz o‘z xabarlaringizni o‘chirishingiz mumkin emas
Siz so‘rovlarda ovoz berishingiz mumkin emas
Siz xabalarga fayllarni biriktirishingiz mumkin emas
Siz fayllarni ko‘chirishingiz mumkin emas