˂
˃
Tarqatmalar statistikasi
Ko‘chirmoqdaman: [ 5 ]
Ko‘chirib bo‘ldim: [ 26 ]
 
     
 
 

yunusovjamshid ®

Jins:
Yigit
Staj:
2 oy 20 kun
Xabarlar:
32

Qayerdan: Toshkent

Taqiq:

--Havo Marshali | Воздушный маршал| Non-Stop
--
Chiqqan yili: 2014
Davlat:
Janr: Jangari, Triller, Detektiv
Davomiyligi: 01:46:37
Tarjima: Professional (o`zbek tilida)--Rejissyor: Jaume Collet-Serra | Хауме Кольет-Серра--Rollarda: Liam Neeson, Julianne Moore, Scoot McNairy, Michelle Dockery, Nate Parker, Corey Stoll, Lupita Nyongo, Omar Metually, Jeyson Butler Harner, Linas Roach--Tavsif: Halqaro aviareys. Yo'lovchilarning xavfsizligini ta'minlaydigan havo marshali Bill Marks, terroristdan qo'rqituvchi xabarni qabul qildi. Huquqbuzar barcha harakatlarni aniq hisob-kitob qilib, maxsus agentning o'zini ayblashga erishdi. Endi Marks — AQSh maxsus xizmatlarining nishonida. Endi uning uchun bir yo'l qolmoqda: jinoyatchini aniqlash va neytrallash, yo'lovchilarni va o'lim yoqasida topgan sevgisini qutqarish. Portlashga bir necha daqiqa qolmoqda ...-- Videoning sifati: BrRip 1080p
Video format:
Video: 1920x800, 23.976 fp/s, 2 110 kb/s
Audio 1: AC3, 48000Hz, 2ch, 256 kbps |
Audio 2: AAC, 44100Hz, 2ch, 192 kbps |
Audio 3: AAC, 44100Hz, 2ch, 192 kbps |

Media Info

General
Unique ID : 198250194201684999894344761073489803728 (0x9525993A87EA7E5BA6B8714DCB55F9D0)
Complete name : K:\Movie\Воздушный маршал (2014)Uz.Rus.Eng.1080p.BluRay.mkv
Format : Matroska
Format version : Version 4 / Version 2
File size : 1.97 GiB
Duration : 1 h 46 min
Overall bit rate : 2 643 kb/s
Encoded date : UTC 2019-01-02 19:36:17
Writing application : mkvmerge v11.0.0 ('Alive') 64bit
Writing library : libebml v1.3.4 + libmatroska v1.4.5
Video
ID : 1
Format : AVC
Format/Info : Advanced Video Codec
Format profile : High@L4.1
Format settings, CABAC : Yes
Format settings, RefFrames : 4 frames
Codec ID : V_MPEG4/ISO/AVC
Duration : 1 h 46 min
Bit rate : 2 110 kb/s
Width : 1 920 pixels
Height : 800 pixels
Display aspect ratio : 2.40:1
Frame rate mode : Constant
Frame rate : 23.976 (24000/1001) FPS
Original frame rate : 23.976 (23976/1000) FPS
Color space : YUV
Chroma subsampling : 4:2:0
Bit depth : 8 bits
Scan type : Progressive
Bits/(Pixel*Frame) : 0.057
Stream size : 1.57 GiB (80%)
Writing library : x264 core 142 r2409 d6b4e63
Encoding settings : cabac=1 / ref=4 / deblock=1:-1:-1 / analyse=0x3:0x133 / me=umh / subme=9 / psy=1 / psy_rd=1.00:0.15 / mixed_ref=1 / me_range=24 / chroma_me=1 / trellis=2 / 8x8dct=1 / cqm=0 / deadzone=21,11 / fast_pskip=0 / chroma_qp_offset=-3 / threads=48 / lookahead_threads=4 / sliced_threads=0 / nr=0 / decimate=1 / interlaced=0 / bluray_compat=0 / constrained_intra=0 / bframes=3 / b_pyramid=2 / b_adapt=2 / b_bias=0 / direct=3 / weightb=1 / open_gop=0 / weightp=2 / keyint=250 / keyint_min=23 / scenecut=40 / intra_refresh=0 / rc_lookahead=60 / rc=2pass / mbtree=1 / bitrate=2110 / ratetol=1.0 / qcomp=0.60 / qpmin=0 / qpmax=69 / qpstep=4 / cplxblur=20.0 / qblur=0.5 / vbv_maxrate=31250 / vbv_bufsize=31250 / nal_hrd=none / filler=0 / ip_ratio=1.40 / aq=1:1.00
Default : Yes
Forced : No
Color range : Limited
Color primaries : BT.709
Matrix coefficients : BT.709
Audio #1
ID : 2
Format : AC-3
Format/Info : Audio Coding 3
Format settings, Endianness : Big
Codec ID : A_AC3
Duration : 1 h 41 min
Bit rate mode : Constant
Bit rate : 256 kb/s
Channel(s) : 2 channels
Channel positions : Front: L R
Sampling rate : 44.1 kHz
Frame rate : 28.711 FPS (1536 SPF)
Bit depth : 16 bits
Compression mode : Lossy
Delay relative to video : -83 ms
Stream size : 187 MiB (9%)
Title : dublyaj
Language : Uzbek
Service kind : Complete Main
Default : Yes
Forced : No
Audio #2
ID : 3
Format : AAC
Format/Info : Advanced Audio Codec
Format profile : LC
Codec ID : A_AAC
Duration : 1 h 46 min
Bit rate : 192 kb/s
Channel(s) : 2 channels
Channel positions : Front: L R
Sampling rate : 48.0 kHz
Frame rate : 46.875 FPS (1024 SPF)
Compression mode : Lossy
Delay relative to video : -83 ms
Stream size : 146 MiB (7%)
Title : DUB
Language : Russian
Default : No
Forced : No
Audio #3
ID : 4
Format : AAC
Format/Info : Advanced Audio Codec
Format profile : LC
Codec ID : A_AAC
Duration : 1 h 46 min
Bit rate : 93.8 kb/s
Channel(s) : 2 channels
Channel positions : Front: L R
Sampling rate : 48.0 kHz
Frame rate : 46.875 FPS (1024 SPF)
Compression mode : Lossy
Delay relative to video : -83 ms
Stream size : 71.5 MiB (4%)
Title : original
Language : English
Default : No
Forced : No
Profil ShX

Dos

Jins:
Ko‘rsatilmagan
Staj:
3 oy 11 kun
Xabarlar:
12
Taqiq:

Juda zo'r kino taklif qilama ko'rishga

Mavzu yaratish 05-Yan-2019 04:02 (6 soat o‘tgach)

Iqitibos

Profil ShX
Xabarlarni ko‘rsatish:    

Hozirgi vaqt: 23-Yan 03:03

Vaqtlar farqi: UTC + 5



Siz mavzu yaratishingiz mumkin emas
Siz xabarlarga javob qaytarishingiz mumkin emas
Siz o‘z xabarlaringizni tahrirlashingiz mumkin emas
Siz o‘z xabarlaringizni o‘chirishingiz mumkin emas
Siz so‘rovlarda ovoz berishingiz mumkin emas
Siz xabalarga fayllarni biriktirishingiz mumkin emas
Siz fayllarni ko‘chirishingiz mumkin emas