˂
˃
Tarqatmalar statistikasi
Ko‘chirib bo‘ldim: [ 2 ]
 
     
 
 

MRLG ®

Jins:
Yigit
Staj:
1 yil 2 oy
Xabarlar:
522
Taqiq:

-Hayot | Живое | Life- FILM HAQIDA MA`LUMOT
Chiqqan yili: 2017
Davlat: AQSH
Janri: Daxshat, Fantastika, Triller
Davomiyligi: 01:43:58
Tarjima: Dublyaj (Professional kadr ortidan)-Rejissiyor: Daniel Espinosa / Daniel Espinosa
Rollarda
Xiroyuki Sanada, Rayan Reynolds, Rebekka Fergyuson, Djeyk Djillenxol, Olga Dыxovichnaya, Erion Bakare, Xesus Del Orden, Allen MakLin, Leyla Greys Bostvik-Riddell, Mari Gvelesiani, Devid Myuir, Elizabet Vargas-Tavsif
Bir guruh tadqiqotchilar Xalqaro samoviy kemada Marsda hayot borligini aniqlashadi. Lekin ular bu yangi mavjudot insoniyat hayoti uchun havfli ekanligiga shubxaga ham borishmaydi.-Qo`shimcha ma`lumotlar
KinoPoisk: 6.636 (24 527)
IMDb: 6.90 (39 057)-Sifat: BDRip
Format: AVI
Video: Xvid / 720x304 / 23.976fps / 1553kbps /
Аудио #1: MP3 / 48000Hz / 2ch / 128kbps / O`zbek tilida
Аудио #2: AC3 / 6ch / 48 kHz / 448 kbps / Rus tilida-

MI

Общее
Полное имя                               : D:\Кино\O'zbek Tarjima filmlari\Hayot 2017.BDRip\Life.2017.BDRip.avi
Формат                                   : AVI
Формат/Информация                        : Audio Video Interleave
Размер файла                             : 1,56 Гбайт
Продолжительность                        : 1 ч. 43 м.
Общий поток                              : 2144 Кбит/сек
Программа кодирования                    : VirtualDubMod 1.5.10.3 | www.virtualdub-fr.org || (build 2550/release)
Библиотека кодирования                   : VirtualDubMod build 2550/release
Видео
Идентификатор                            : 0
Формат                                   : MPEG-4 Visual
Профиль формата                          : Advanced Simple@L5
Параметр BVOP формата                    : 1
Параметр QPel формата                    : Нет
Параметр GMC формата                     : Без точки перехода
Параметр матрицы формата                 : Выборочная
Идентификатор кодека                     : XVID
Идентификатор кодека/Подсказка           : XviD
Продолжительность                        : 1 ч. 43 м.
Битрейт                                  : 1554 Кбит/сек
Ширина                                   : 720 пикселей
Высота                                   : 304 пикселя
Соотношение сторон                       : 2,35:1
Частота кадров                           : 23,976 (24000/1001) кадра/сек
Цветовое пространство                    : YUV
Субдискретизация насыщенности            : 4:2:0
Битовая глубина                          : 8 бит
Тип развёртки                            : Прогрессивная
Метод сжатия                             : С потерями
Бит/(Пиксели*Кадры)                      : 0.296
Размер потока                            : 1,13 Гбайт (72%)
Библиотека кодирования                   : XviD 73
Аудио #1
Идентификатор                            : 1
Формат                                   : MPEG Audio
Версия формата                           : Version 1
Профиль формата                          : Layer 3
Идентификатор кодека                     : 55
Идентификатор кодека/Подсказка           : MP3
Продолжительность                        : 1 ч. 43 м.
Вид битрейта                             : Постоянный
Битрейт                                  : 128 Кбит/сек
Каналы                                   : 2 канала
Частота                                  : 48,0 КГц
Метод сжатия                             : С потерями
Размер потока                            : 95,2 Мбайт (6%)
Выравнивание                             : Соединение по промежуткам
Продолжительность промежутка             : 42  мс. (1,00 видеокадр)
Время предзагрузки промежутка            : 504  мс.
Библиотека кодирования                   : LAME3.99r
Настройки программы                      : -m s -V 4 -q 0 -lowpass 17 -b 128
Аудио #2
Идентификатор                            : 2
Формат                                   : AC-3
Формат/Информация                        : Audio Coding 3
Параметр Endianness формата              : Big
Идентификатор кодека                     : 2000
Продолжительность                        : 1 ч. 43 м.
Вид битрейта                             : Постоянный
Битрейт                                  : 448 Кбит/сек
Каналы                                   : 6 каналов
Расположение каналов                     : Front: L C R, Side: L R, LFE
Частота                                  : 48,0 КГц
Частота кадров                           : 31,250 кадров/сек (1536 SPF)
Битовая глубина                          : 16 бит
Метод сжатия                             : С потерями
Размер потока                            : 333 Мбайт (21%)
Выравнивание                             : Разделение по промежуткам
Продолжительность промежутка             : 42  мс. (1,00 видеокадр)
Время предзагрузки промежутка            : 500  мс.
ServiceKind/String                       : Complete Main

Miniatyura

SKRINSHOTLAR


So‘ngi marta tahrirlandi: MRLG (2017-10-30 09:33), Jami tahrirlangan 1 marta
Profil ShX

vuelta

Jins:
Yigit
Staj:
1 yil 2 oy
Xabarlar:
298
Taqiq:

Life

Mavzu yaratish 18-Avg-2017 16:24 (23 soat o‘tgach)

Iqitibos

Profil ShX

bobir

Jins:
Ko‘rsatilmagan
Staj:
1 yil 2 oy
Xabarlar:
1
Taqiq:

gap yuq tezlek zur qayta ishga tushgani zur bupti admin ishga omad

Mavzu yaratish 19-Avg-2017 19:20 (1 kun 2 soat o‘tgach)

Iqitibos

Profil ShX

Deejay

Jins:
Yigit
Staj:
1 yil 2 oy
Xabarlar:
22

Qayerdan: Daejeon#

Taqiq:

zo'r kino ekan endi buni 2-qismiham chqarmikin?

Mavzu yaratish 23-Avg-2017 11:14 (3 kun o‘tgach)

Iqitibos

Profil ShX

MRLG ®

Jins:
Yigit
Staj:
1 yil 2 oy
Xabarlar:
522
Taqiq:

Deejay, 1-2 yil ichida davomi ham chiqib qolsa ajab emas.

Mavzu yaratish 23-Avg-2017 11:19 (5 daqiqa o‘tgach)

Iqitibos

Profil ShX

Gr@nd

Jins:
Yigit
Staj:
1 yil 1 oy
Xabarlar:
158

Qayerdan: Jizzax Forish

Taqiq:

MRLG, ishlashdan charchamang

Mavzu yaratish 10-Okt-2017 23:24 (1 oy 18 kun o‘tgach)

Iqitibos

Profil ShX

BestBoy

Jins:
Yigit
Staj:
1 yil 1 oy
Xabarlar:
63
Taqiq:

kechqurun 1 larda korgandim duxim sinip qoldi oxirida

Mavzu yaratish 12-Okt-2017 15:58 (1 kun 16 soat o‘tgach)

Iqitibos

Profil ShX

vuelta

Jins:
Yigit
Staj:
1 yil 2 oy
Xabarlar:
298
Taqiq:

har bir kinoni uzini kuradigan vaqti buladida

Mavzu yaratish 12-Okt-2017 16:54 (56 daqiqa o‘tgach)

Iqitibos

Profil ShX
Xabarlarni ko‘rsatish:    

Hozirgi vaqt: 15-Noy 11:39

Vaqtlar farqi: UTC + 5



Siz mavzu yaratishingiz mumkin emas
Siz xabarlarga javob qaytarishingiz mumkin emas
Siz o‘z xabarlaringizni tahrirlashingiz mumkin emas
Siz o‘z xabarlaringizni o‘chirishingiz mumkin emas
Siz so‘rovlarda ovoz berishingiz mumkin emas
Siz xabalarga fayllarni biriktirishingiz mumkin emas
Siz fayllarni ko‘chirishingiz mumkin emas