Tarqatmalar statistikasi
Yoʻq
 
     
 
 

Vampire_1987 ®

Jins:
Ko‘rsatilmagan
Staj:
1 yil
Xabarlar:
114
Taqiq:

--Hayot mamot o'yinlari 3 | Голодные игры: Сойка-пересмешница. Часть I | The Hunger Games: Mockingjay - Part-- Davlat: AQSH / Lionsgate, Color Force
Janr: Fantastika,Sarguzasht
Chiqqan yili: 2014
Davomiyligi: 01:48:19
Tarjima: Dublyaj (Professional) [O'zbek Tilida]
Tarjima haqida qo'shimcha ma'lumot: 'MY5-TV--Rejissiyor: Francis Lawrence--Rollarda: Djennifer Lourens, Djosh Xatcherson, Liam Xemsvort, Vudi Xarrelson, Donald Sazerlend, Filip Seymur Xoffman, Djulianna Mur, Uillou Shilds, Sem Klaflin, Elizabet Benks--Описание: 75-ые Голодные игры изменили все. Китнисс нарушила правила, и непоколебимое до той поры деспотичное правление Капитолия пошатнулось. У людей появилась надежда, и ее символ — Сойка-пересмешница. Теперь, чтобы освободить захваченного в плен Пита и защитить своих близких, Китнисс придется сражаться в настоящих битвах и стать еще сильнее, чем на арене игр.-- --Sifat: TVRip
Format: AVI
Video: XviD 640x264 25fps 829kbps
Audio: MP3 48000Hz stereo 128kbps----

MediaInfo

General
Complete name : E:\TARJIMA TV\TV_ Go\Hayot Momot O'yinlari 3.avi
Format : AVI
Format/Info : Audio Video Interleave
File size : 750 MiB
Duration : 1 h 48 min
Overall bit rate : 968 kb/s
Writing application : VirtualDubMod 1.5.10.3 | www.virtualdub-fr.org || (build 2550/release)
Writing library : VirtualDubMod build 2550/release
Video
ID : 0
Format : MPEG-4 Visual
Format profile : Advanced Simple@L5
Format settings : BVOP1
Format settings, BVOP : 1
Format settings, QPel : No
Format settings, GMC : No warppoints
Format settings, Matrix : Default (MPEG)
Codec ID : XVID
Codec ID/Hint : XviD
Duration : 1 h 48 min
Bit rate : 830 kb/s
Width : 640 pixels
Height : 264 pixels
Display aspect ratio : 2.40:1
Frame rate : 25.000 FPS
Color space : YUV
Chroma subsampling : 4:2:0
Bit depth : 8 bits
Scan type : Progressive
Compression mode : Lossy
Bits/(Pixel*Frame) : 0.196
Stream size : 643 MiB (86%)
Writing library : XviD 73
Audio
ID : 1
Format : MPEG Audio
Format version : Version 1
Format profile : Layer 3
Codec ID : 55
Codec ID/Hint : MP3
Duration : 1 h 48 min
Bit rate mode : Constant
Bit rate : 128 kb/s
Channel(s) : 2 channels
Sampling rate : 48.0 kHz
Compression mode : Lossy
Stream size : 99.2 MiB (13%)
Alignment : Aligned on interleaves
Interleave, duration : 40 ms (1.00 video frame)
Interleave, preload duration : 504 ms
Writing library : LAME3.99r
Encoding settings : -m s -V 4 -q 0 -lowpass 17 -b 128


So‘ngi marta tahrirlandi: Vampire_1987 (2017-10-22 12:26), Jami tahrirlangan 1 marta
Profil ShX

Топик был перенесен из форума Vaqtinchalik в форум 2012-2016 yil kinofilmlari
Vampire_1987

Mavzu yaratish 22-Okt-2017 12:20 (1 daqiqa o‘tgach)

Vampire_1987 ®

Jins:
Ko‘rsatilmagan
Staj:
1 yil
Xabarlar:
114
Taqiq:

keginchalik HD Reliz Qilinadi Xozircha TV dan Yozganlarimni Reliz Qilib Boraman nega Bunday Qilyabganimni Etsam Taxlil Qilishga Vatim Bomayabdi Saytlardan Olsam Filim Orasida Boshqa Saytni Reqlama Qilishyabdi Ovozli Xolda Shuning Uchun Tv dan Yozyabman 81 lik Tvda Korsa Yaxshi Korsatadi ) Bu Fayl ) Omad Xammaga )

Mavzu yaratish 22-Okt-2017 12:43 (24 daqiqa o‘tgach)

Iqitibos

Profil ShX

Rico_Bek

Jins:
Yigit
Staj:
11 oy 14 kun
Xabarlar:
119

Qayerdan: Andijon

Taqiq:

Vampire_1987, Raxmat. Ishizga omad.
Nimagadir ulanmayabdi. Dobavit pir qilvoring. 10.5.81.224:57000

Mavzu yaratish 22-Okt-2017 13:39 (56 daqiqa o‘tgach)

Iqitibos

Profil ShX

Rico_Bek

Jins:
Yigit
Staj:
11 oy 14 kun
Xabarlar:
119

Qayerdan: Andijon

Taqiq:

Ip O`zgardi 10.5.46.249:57000

Mavzu yaratish 22-Okt-2017 16:20 (2 soat 41 daqiqa o‘tgach)

Iqitibos

Profil ShX
Xabarlarni ko‘rsatish:    

Hozirgi vaqt: 19-Sen 12:47

Vaqtlar farqi: UTC + 5



Siz mavzu yaratishingiz mumkin emas
Siz xabarlarga javob qaytarishingiz mumkin emas
Siz o‘z xabarlaringizni tahrirlashingiz mumkin emas
Siz o‘z xabarlaringizni o‘chirishingiz mumkin emas
Siz so‘rovlarda ovoz berishingiz mumkin emas
Siz xabalarga fayllarni biriktirishingiz mumkin emas
Siz fayllarni ko‘chirishingiz mumkin emas