˂
˃
Tarqatmalar statistikasi
Yoʻq
 
     
 
 

Vampire_1987 ®

Jins:
Ko‘rsatilmagan
Staj:
1 yil 2 oy
Xabarlar:
115
Taqiq:

--Hayot mamot o'yinlari 4 | Голодные игры: Сойка-пересмешница. Часть II / The Hunger Games: Mockingjay - Part 2-- Davlat: AQSh, Germaniya / Lionsgate, Color Force, Studio Babelsberg.
Janr: Fantastika, triller, urushga oid
Chiqqan yili: 2015
Davomiyligi: 02:02:52
Tarjima: Dublyaj (Professional) [O'zbek Tilida]
Tarjima haqida qo'shimcha ma'lumot: 'MY5-TV--Rejissiyor: Francis Lawrence--Rollarda: Djennifer Lourens, Djosh Xatcherson, Liam Xemsvort, Vudi Xarrelson, Donald Sazerlend, Filip Seymur Xoffman, Djulianna Mur, Uillou Shilds, Sem Klaflin, Elizabet Benks--Описание: Китнисс Эвердин и своенравный Пит Мелларк пытаются выиграть гражданскую войну между самодержавным Капитолием и истерзанными войной районами Панема...-- --Sifat: TVRip
Format: AVI
Video: XviD 688x288 25fps 716kbps
Audio: MP3 48000Hz stereo 128kbps----

MediaInfo

General
Complete name : E:\TARJIMA TV\TV_ Go\Hayot Momot O'yinlari 4 2015.avi
Format : AVI
Format/Info : Audio Video Interleave
File size : 751 MiB
Duration : 2 h 2 min
Overall bit rate : 855 kb/s
Writing application : VirtualDubMod 1.5.10.3 | www.virtualdub-fr.org || (build 2550/release)
Writing library : VirtualDubMod build 2550/release
Video
ID : 0
Format : MPEG-4 Visual
Format profile : Advanced Simple@L5
Format settings : BVOP1
Format settings, BVOP : 1
Format settings, QPel : No
Format settings, GMC : No warppoints
Format settings, Matrix : Default (MPEG)
Codec ID : XVID
Codec ID/Hint : XviD
Duration : 2 h 2 min
Bit rate : 717 kb/s
Width : 688 pixels
Height : 288 pixels
Display aspect ratio : 2.40:1
Frame rate : 25.000 FPS
Color space : YUV
Chroma subsampling : 4:2:0
Bit depth : 8 bits
Scan type : Progressive
Compression mode : Lossy
Bits/(Pixel*Frame) : 0.145
Stream size : 630 MiB (84%)
Writing library : XviD 73
Audio
ID : 1
Format : MPEG Audio
Format version : Version 1
Format profile : Layer 3
Codec ID : 55
Codec ID/Hint : MP3
Duration : 2 h 2 min
Bit rate mode : Constant
Bit rate : 128 kb/s
Channel(s) : 2 channels
Sampling rate : 48.0 kHz
Compression mode : Lossy
Stream size : 112 MiB (15%)
Alignment : Aligned on interleaves
Interleave, duration : 40 ms (1.00 video frame)
Interleave, preload duration : 504 ms
Writing library : LAME3.99r
Encoding settings : -m s -V 4 -q 0 -lowpass 17 -b 128
Profil ShX

Topik Vaqtinchalik forumidan 2012-2016 yil kinofilmlari ga ko'chirildi
Vampire_1987

Mavzu yaratish 22-Okt-2017 19:39 (40 soniya o‘tgach)

BestBoy

Jins:
Yigit
Staj:
1 yil 1 oy
Xabarlar:
63
Taqiq:

nme skachat qilmayapti


So‘ngi marta tahrirlandi: BestBoy (2017-10-25 17:50), Jami tahrirlangan 1 marta

Mavzu yaratish 25-Okt-2017 13:46 (2 kun 18 soat o‘tgach)

Iqitibos

Profil ShX

Rico_Bek

Jins:
Yigit
Staj:
1 yil 1 oy
Xabarlar:
125

Qayerdan: Andijon

Taqiq:

Добавит пир qilvoringlar iltimos.
10.5.123.241:57000
Nimagadir avtomatik ulanmayabdi. Shu 39 mb http://uztracker.me/viewtopic.php?t=188 relizni xam 3 kundan beri ko`chira olmadim.

Mavzu yaratish 25-Okt-2017 14:53 (1 soat 7 daqiqa o‘tgach)

Iqitibos

Profil ShX

BestBoy

Jins:
Yigit
Staj:
1 yil 1 oy
Xabarlar:
63
Taqiq:

men 3 kundan
beri skacha qilolmayapman sider!

Mavzu yaratish 29-Okt-2017 18:46 (4 kun o‘tgach)

Iqitibos

Profil ShX
Xabarlarni ko‘rsatish:    

Hozirgi vaqt: 21-Noy 19:05

Vaqtlar farqi: UTC + 5



Siz mavzu yaratishingiz mumkin emas
Siz xabarlarga javob qaytarishingiz mumkin emas
Siz o‘z xabarlaringizni tahrirlashingiz mumkin emas
Siz o‘z xabarlaringizni o‘chirishingiz mumkin emas
Siz so‘rovlarda ovoz berishingiz mumkin emas
Siz xabalarga fayllarni biriktirishingiz mumkin emas
Siz fayllarni ko‘chirishingiz mumkin emas