˂
˃
Tarqatmalar statistikasi
Yoʻq
 
     
 
 

Deadpool ®

Jins:
Yigit
Staj:
1 yil
Xabarlar:
16

Qayerdan: Andijan, Kurgantepa

Taqiq:

Hayvonlar Shahri | Zootopia

Davlat: AQSH
Janr: Multfilm, oilaviy, sayohat
Davomiyligi: 01:43:55
Chiqqan yili: 2016-Tarjima: Professional (dublyaj qilingan)
Tarjima 2: Professional (dublyaj qilingan)--Rejissior: Byron Howard, Rich Moore, Jared Bush
Ma'lumot: Zveropolis-zamonaviy shaharga xush kelibsiz. Turli hayvonlarning katta pillalardan kichik sichqonlargacha yashashi. Zveropolis turli aholining tabiiy yashash joylarini butunlay takrorlanadigan hududlarga bo'lingan - shuningdek, Sahroli elita va Tondratownning noma'lum sohasi ham mavjud. Ushbu shaharda yangi politsiya xodimi paydo bo'lib, ishning dastlabki kunlaridan boshlab buyuk va kuchli politsiyachilar orasida kichik va yumshoq bo'lish qanchalik qiyinligini tushunadigan quvnoq quyon Judy Xoppes. Judy o'zining birinchi sherigi Nik Wildning g'ayritabiiy ayyor tulki bo'lishiga qaramasdan o'zini o'zi isbotlash uchun birinchi imkoniyatni egallaydi. Birgalikda ular Zveropolisning barcha aholisi taqdiriga bog'liq bo'lgan murakkab masalalarni hal qilishlari kerak.--Sifat: BDRip
Format: MKV
Video: MPEG4 Video (H264) 1280x528 25fps [V: [Undetermined]]
Audio: Dolby AC3 48000Hz stereo [A: [Russian]]
Audio 2: MP3 44100Hz stereo [Uzbek] Unknown [No subtitles]
Subtitr: Mavjud emas

Texnik ma`lumotlar

General
Unique ID : 210117361760990285431969017051092606783 (0x9E1321C3390A0EDCA8507B6AFF27DF3F)
Complete name : D:\МУЛЬТИМЕДИА\Hayvonlar Shahri Zveropolis.2O16.720p.mkv
Format : Matroska
Format version : Version 4 / Version 2
File size : 1.32 GiB
Duration : 1h 44mn
Overall bit rate : 1 811 Kbps
Movie name : hayvonlar shahri
Encoded date : UTC 2016-08-05 15:28:29
Writing application : mkvmerge v6.8.0 ('Theme for Great Cities') 64bit built on Mar 2 2014 21:34:26
Writing library : libebml v1.3.0 + libmatroska v1.4.1
Video
ID : 1
Format : AVC
Format/Info : Advanced Video Codec
Format profile : High@L3.1
Format settings, CABAC : Yes
Format settings, ReFrames : 6 frames
Codec ID : V_MPEG4/ISO/AVC
Duration : 1h 44mn
Bit rate : 1 455 Kbps
Width : 1 280 pixels
Height : 528 pixels
Display aspect ratio : 2.40:1
Frame rate mode : Constant
Frame rate : 25.000 fps
Color space : YUV
Chroma subsampling : 4:2:0
Bit depth : 8 bits
Scan type : Progressive
Bits/(Pixel*Frame) : 0.086
Stream size : 1.06 GiB (80%)
Writing library : Provided by letv cloud :: H.264/MPEG-4 AVC codec -V 1.6.09-20151125
Default : Yes
Forced : No
Color primaries : BT.709
Transfer characteristics : BT.709
Matrix coefficients : BT.709
Audio #1
ID : 2
Format : AC-3
Format/Info : Audio Coding 3
Mode extension : CM (complete main)
Format settings, Endianness : Big
Codec ID : A_AC3
Duration : 1h 44mn
Bit rate mode : Constant
Bit rate : 192 Kbps
Channel(s) : 2 channels
Channel positions : Front: L R
Sampling rate : 48.0 KHz
Bit depth : 16 bits
Compression mode : Lossy
Stream size : 143 MiB (11%)
Language : Russian
Default : Yes
Forced : No
Audio #2
ID : 3
Format : MPEG Audio
Format version : Version 1
Format profile : Layer 3
Mode : Joint stereo
Mode extension : MS Stereo
Codec ID : A_MPEG/L3
Codec ID/Hint : MP3
Duration : 1h 44mn
Bit rate mode : Constant
Bit rate : 128 Kbps
Channel(s) : 2 channels
Sampling rate : 44.1 KHz
Compression mode : Lossy
Stream size : 95.4 MiB (7%)
Title :
Writing library : LAME3.98.2
Language : Uzbek
Default : No
Forced : No

Lavhalar

Profil ShX

vuelta

Jins:
Yigit
Staj:
1 yil 3 oy
Xabarlar:
298
Taqiq:

http://uztracker.me/viewtopic.php?t=290 manabu bilan solishtirib uzbekchalashtirib chiqing

Mavzu yaratish 24-Noy-2017 21:54 (6 daqiqa o‘tgach)

Iqitibos

Profil ShX

Deadpool ®

Jins:
Yigit
Staj:
1 yil
Xabarlar:
16

Qayerdan: Andijan, Kurgantepa

Taqiq:

Azim_Foto, multik uzbda dizayniga 1-relizim uchun bezatolmadim xudo xoxlasa keyingilari yaxshiroq bo'ladi

Mavzu yaratish 25-Noy-2017 18:29 (20 soat o‘tgach)

Iqitibos

Profil ShX

vuelta

Jins:
Yigit
Staj:
1 yil 3 oy
Xabarlar:
298
Taqiq:

yo yaxshi chiqgan bundan ortigi bachkana buladi

Mavzu yaratish 25-Noy-2017 22:24 (3 soat o‘tgach)

Iqitibos

Profil ShX

Javohir123

Jins:
Yigit
Staj:
1 yil 1 oy
Xabarlar:
48
Taqiq:

bu multfilmni Gr@nd yasaganku qayerdan oldingiz

Mavzu yaratish 28-Noy-2017 14:37 (2 kun 16 soat o‘tgach)

Iqitibos

Profil ShX

Deadpool ®

Jins:
Yigit
Staj:
1 yil
Xabarlar:
16

Qayerdan: Andijan, Kurgantepa

Taqiq:

Javohir123, freetordan kochirgandim oldinlari

Mavzu yaratish 28-Noy-2017 21:30 (6 soat o‘tgach)

Iqitibos

Profil ShX

N.U.R.I.K.B.E.K

Jins:
Yigit
Staj:
1 yil
Xabarlar:
307

Qayerdan: Jizzax. Paxtakor

Taqiq:

Deadpool, uzb tarjimasi yog'u

Mavzu yaratish 04-Dek-2017 16:03 (5 kun o‘tgach)

Iqitibos

Profil ShX

MRLG

Jins:
Yigit
Staj:
1 yil 3 oy
Xabarlar:
524
Taqiq:

N.U.R.I.K.B.E.K, Playeringizdan ikkinchi ovoz yo'lakchasiga o'tkazing. PotPlayer uchun ALT+A tugmalari ovoz yo'lakchalarini almashtiradi.

Mavzu yaratish 04-Dek-2017 16:35 (32 daqiqa o‘tgach)

Iqitibos

Profil ShX

MRLG

Jins:
Yigit
Staj:
1 yil 3 oy
Xabarlar:
524
Taqiq:

bu multikni ohirida ovozi juda xirami ? yoki boshidan to ohirigacha tiniqmi o'zbekcha dublyaj?

Mavzu yaratish 16-Dek-2017 13:30 (11 kun o‘tgach)

Iqitibos

Profil ShX

N.U.R.I.K.B.E.K

Jins:
Yigit
Staj:
1 yil
Xabarlar:
307

Qayerdan: Jizzax. Paxtakor

Taqiq:

MRLG, xa xira ekan

Mavzu yaratish 18-Mar-2018 12:11 (3 oy 1 kun o‘tgach)

Iqitibos

Profil ShX
Xabarlarni ko‘rsatish:    

Hozirgi vaqt: 19-Noy 04:39

Vaqtlar farqi: UTC + 5



Siz mavzu yaratishingiz mumkin emas
Siz xabarlarga javob qaytarishingiz mumkin emas
Siz o‘z xabarlaringizni tahrirlashingiz mumkin emas
Siz o‘z xabarlaringizni o‘chirishingiz mumkin emas
Siz so‘rovlarda ovoz berishingiz mumkin emas
Siz xabalarga fayllarni biriktirishingiz mumkin emas
Siz fayllarni ko‘chirishingiz mumkin emas