Tarqatmalar statistikasi
Yoʻq
 
     
 
 

BoboMUROD ®

Jins:
Ko‘rsatilmagan
Staj:
11 oy 15 kun
Xabarlar:
10
Taqiq:

Hisobchi | The Accountant
Davlat: AQSH
Janr: Triller, kriminal,drama
Chiqqan yili: 2016
Davomiyligi: 01:57:56
Tarjima: Professional (dublyaj qilingan)
Rejissiyor: Gevin O`Konnor | Gavin O'Connor
Rollarda: Ben Afflek, Anna Kendrik, Jon Berntal, J.К. Simmons, Deg Ferch, Jeffi Tegfor, Jon Litgou, Sintiya Adday-Robinson, Elison Rayt, Samanta Yancho
Tavsif: Лента расскажет историю математического гения Кристиана Вульфа, который подрабатывает аудитором для самых опасных преступных организаций. Когда ему «на хвост» садится отдел по борьбе с преступностью Министерства финансов во главе с Рэем Кингом Кристиан решает найти себе законопослушного клиента и проводит аудит в компании по производству новейшей робототехники, где сотрудница финансового отдела обнаружила «нестыковочку» в миллионы долларов. Но стоит Кристиану взяться за счета и выйти на след, как в деле начинают появляться жертвы
Videoning sifati: DVDRip
Формат видео: AVI
Video: Xvid 640x360 25fps 560kbps
Audio: MP3 44100Hz stereo 128kbps

MediaInfo

General
Complete name : D:\KINO\TARJIMA\Hisobchi.avi
Format : AVI
Format/Info : Audio Video Interleave
File size : 591 MiB
Duration : 1 h 57 min
Overall bit rate : 701 kb/s
Writing application : MEncoder SVN-r30881(20100311-gcc4.3.3)
Writing library : MPlayer
Video
ID : 0
Format : MPEG-4 Visual
Format profile : Advanced Simple@L5
Format settings, BVOP : 2
Format settings, QPel : No
Format settings, GMC : No warppoints
Format settings, Matrix : Default (H.263)
Codec ID : XVID
Codec ID/Hint : XviD
Duration : 1 h 57 min
Bit rate : 561 kb/s
Width : 640 pixels
Height : 360 pixels
Display aspect ratio : 16:9
Frame rate : 25.000 FPS
Color space : YUV
Chroma subsampling : 4:2:0
Bit depth : 8 bits
Scan type : Progressive
Compression mode : Lossy
Bits/(Pixel*Frame) : 0.097
Stream size : 473 MiB (80%)
Writing library : XviD 1.2.1 (UTC 2008-12-04)
Audio
ID : 1
Format : MPEG Audio
Format version : Version 1
Format profile : Layer 3
Mode : Joint stereo
Mode extension : MS Stereo
Codec ID : 55
Codec ID/Hint : MP3
Duration : 1 h 57 min
Bit rate mode : Constant
Bit rate : 128 kb/s
Channel(s) : 2 channels
Sampling rate : 44.1 kHz
Compression mode : Lossy
Delay relative to video : 40 ms
Stream size : 108 MiB (18%)
Alignment : Aligned on interleaves
Interleave, duration : 26 ms (0.65 video frame)
Interleave, preload duration : 522 ms

Lavhalar

Profil ShX
Xabarlarni ko‘rsatish:    

Hozirgi vaqt: 19-Sen 11:37

Vaqtlar farqi: UTC + 5



Siz mavzu yaratishingiz mumkin emas
Siz xabarlarga javob qaytarishingiz mumkin emas
Siz o‘z xabarlaringizni tahrirlashingiz mumkin emas
Siz o‘z xabarlaringizni o‘chirishingiz mumkin emas
Siz so‘rovlarda ovoz berishingiz mumkin emas
Siz xabalarga fayllarni biriktirishingiz mumkin emas
Siz fayllarni ko‘chirishingiz mumkin emas