˂
˃
Tarqatmalar statistikasi
Ko‘chiraman: [ 1 ]
Ko‘chirmoqdaman: [ 2 ]
Ko‘chirib bo‘ldim: [ 11 ]
 
     
 
 

AxeL ®

Jins:
Yigit
Staj:
8 oy 24 kun
Xabarlar:
610

Qayerdan: Gronland, Norway

Taqiq:

Ilon hamlasi / Бросок кобры / G.I. Joe: The Rise of Cobra- Chiqqan yili: 2009
Davlat: AQSh, Chexiya
Janr: fantastika, jangari, triller, sarguzasht
Davomiyligi: 01:57:59
Tarjima: Professional (dublyaj qilingan, kadr ortidan) O'zbek tilida-Rejissyor: Stiven Sommers-Rollarda: Chenning Tatum, Marlon Uayans, Siena Miller, Reychel Nikols, Adevale Akinoye-Agbaje, Kristofer Ekklston, Jozef Gordon, Li Byon Xon-Tavsif: Mashhur G.I Joe guruhiga yangi askarlar, Diuk va Riplar qo'shilishadi. Mars indastries kompaniyasi yangi texnologiya bilan, ajabtovur nanomitlarni o'ylab topishadi. Bu nanomitlar yordamida yangi zombilar yaratishadi. Eng so'ngi ishi esa dunyoning eng nufuzli shaharlariga, bomba tashlash. Bu bomba portlamaydi, u yemirish xususiyatiga ega. Voqealar rivojini bizda kuzating. Uztracker.me sizga tavsiya qiladi....-IMDb: 5.80 (168 786)
КиноПоиск: 6.324 (64 629)-Videoning sifati: HDRip
Video format: MKV
Video: MPEG4 Video (H264) 720x304 23.976fps 1 014 Kbps
Audio #1: AAC 48000Hz stereo 192 Kbps Rus tilida
Audio #2: AAC 44100Hz stereo 96.0 Kbps O'zbek tilida

Media info

General
Unique ID : 228693676950619087061271033889786216520 (0xAC0CCCD04809529846273E6CC900C048)
Complete name : D:\Ilon.Hamlasi.Uzb.Rus.HDRip.mkv
Format : Matroska
Format version : Version 4 / Version 2
File size : 1.07 GiB
Duration : 1h 57mn
Overall bit rate : 1 300 Kbps
Encoded date : UTC 2018-09-23 12:59:53
Writing application : mkvmerge v22.0.0 ('At The End Of The World') 64-bit
Writing library : libebml v1.3.5 + libmatroska v1.4.8
Video
ID : 1
Format : AVC
Format/Info : Advanced Video Codec
Format profile : High@L3
Format settings, CABAC : Yes
Format settings, ReFrames : 4 frames
Codec ID : V_MPEG4/ISO/AVC
Duration : 1h 57mn
Bit rate : 1 014 Kbps
Width : 720 pixels
Height : 304 pixels
Display aspect ratio : 2.35:1
Frame rate mode : Constant
Frame rate : 23.976 (24000/1001) fps
Color space : YUV
Chroma subsampling : 4:2:0
Bit depth : 8 bits
Scan type : Progressive
Bits/(Pixel*Frame) : 0.193
Stream size : 852 MiB (78%)
Writing library : x264 core 146 r109 121396c
Encoding settings : cabac=1 / ref=3 / deblock=1:0:0 / analyse=0x3:0x113 / me=hex / subme=7 / psy=1 / psy_rd=1.00:0.00 / mixed_ref=1 / me_range=16 / chroma_me=1 / trellis=1 / 8x8dct=1 / cqm=0 / deadzone=21,11 / fast_pskip=1 / chroma_qp_offset=-2 / threads=12 / lookahead_threads=2 / sliced_threads=0 / nr=0 / decimate=1 / interlaced=0 / bluray_compat=0 / constrained_intra=0 / bframes=3 / b_pyramid=2 / b_adapt=1 / b_bias=0 / direct=1 / weightb=1 / open_gop=0 / weightp=2 / keyint=250 / keyint_min=23 / scenecut=40 / intra_refresh=0 / rc_lookahead=40 / rc=abr / mbtree=1 / bitrate=1014 / ratetol=1.0 / qcomp=0.60 / qpmin=0 / qpmax=69 / qpstep=4 / ip_ratio=1.40 / aq=1:1.00
Default : Yes
Forced : No
Audio #1
ID : 2
Format : AAC
Format/Info : Advanced Audio Codec
Format profile : LC
Codec ID : A_AAC
Duration : 1h 57mn
Bit rate : 192 Kbps
Channel(s) : 2 channels
Channel positions : Front: L R
Sampling rate : 48.0 KHz
Frame rate : 46.875 fps (1024 spf)
Compression mode : Lossy
Delay relative to video : -21ms
Stream size : 161 MiB (15%)
Title : Rus tilida (DUB) AxeL
Language : Russian
Default : Yes
Forced : No
Audio #2
ID : 3
Format : AAC
Format/Info : Advanced Audio Codec
Format profile : LC
Codec ID : A_AAC
Duration : 1h 57mn
Bit rate : 96.0 Kbps
Channel(s) : 2 channels
Channel positions : Front: L R
Sampling rate : 44.1 KHz
Frame rate : 43.066 fps (1024 spf)
Compression mode : Lossy
Delay relative to video : -21ms
Stream size : 80.8 MiB (7%)
Title : O'zbek tilida (DUB) AxeL
Language : Uzbek
Default : No
Forced : No
-LAVHALAR--Rahmat va Like bosish sizlardan, reliz qilish bizdan!!!-


So‘ngi marta tahrirlandi: AxeL (2018-09-23 18:24), Jami tahrirlangan 1 marta
Profil ShX

AxeL ®

Jins:
Yigit
Staj:
8 oy 24 kun
Xabarlar:
610

Qayerdan: Gronland, Norway

Taqiq:

Hohlovchilar uchun BDRip 1080p sifatliginiyam joylashimiz mumkin!

Mavzu yaratish 23-Sen-2018 18:22 (3 daqiqa o‘tgach)

Iqitibos

Profil ShX

MRLG

Jins:
Yigit
Staj:
1 yil 3 oy
Xabarlar:
526
Taqiq:

Yaxshi film. Yaqin o'zim ham BDRip-AVC sifatida tayyorlab olgan edim. MY5dan berishganida.

Mavzu yaratish 23-Sen-2018 18:54 (32 daqiqa o‘tgach)

Iqitibos

Profil ShX

UmarShoh

Jins:
Yigit
Staj:
9 oy 6 kun
Xabarlar:
371
Taqiq:

AxeL, 1080p Hevc formatda tayyorlang iloji bo'lsa ! aa

Mavzu yaratish 23-Sen-2018 20:01 (1 soat 7 daqiqa o‘tgach)

Iqitibos

Profil ShX

AxeL ®

Jins:
Yigit
Staj:
8 oy 24 kun
Xabarlar:
610

Qayerdan: Gronland, Norway

Taqiq:

6216AxeL, 1080p Hevc formatda tayyorlang iloji bo'lsa ! aa
qo'shni trekerda bu filmni HEVC formati yo'q ekanda, mayli hudo hohlasa topib reliz qilaman

Mavzu yaratish 23-Sen-2018 20:19 (18 daqiqa o‘tgach)

Iqitibos

Profil ShX

N.U.R.I.K.B.E.K

Jins:
Yigit
Staj:
1 yil 1 oy
Xabarlar:
340

Qayerdan: Jizzax. Paxtakor

Taqiq:

AxeL, kinomanda bor ekan 7.95gb

Mavzu yaratish 24-Sen-2018 00:22 (4 soat o‘tgach)

Iqitibos

Profil ShX
Xabarlarni ko‘rsatish:    

Hozirgi vaqt: 11-Dek 22:02

Vaqtlar farqi: UTC + 5



Siz mavzu yaratishingiz mumkin emas
Siz xabarlarga javob qaytarishingiz mumkin emas
Siz o‘z xabarlaringizni tahrirlashingiz mumkin emas
Siz o‘z xabarlaringizni o‘chirishingiz mumkin emas
Siz so‘rovlarda ovoz berishingiz mumkin emas
Siz xabalarga fayllarni biriktirishingiz mumkin emas
Siz fayllarni ko‘chirishingiz mumkin emas