˂
˃
Tarqatmalar statistikasi
Yoʻq
 
     
 
 

azizbek ®

Jins:
Yigit
Staj:
1 yil
Xabarlar:
139

Qayerdan: Surxondaryo

Taqiq:

Interstellar | Интерстеллар | Interstellar
--Film haqida ma'lumot:
Davlat: AQSh, Buyuk Britaniya, Kanada, Islandiya
Janr: fantastika, drama, sarguzasht
Chiqqan yili: 2014
Davomiyligi: 2 soat 49 min--Tarjima:
o'zbekcha - Ko'p ovozli kadr ortidan Kinoteatr
o'zbekcha - Ko'p ovozli kadr ortidan MY5
ruscha - To'liq dyublaj
inglizcha - orginal+Subtitle--Rejissiyor: Kristofer Nolan / Кристофер Нолан
Rollarda:Matto McConaughey, Enn Hathaway, Jessica Chastain, Mackenzie Foy, Maykl Caine, David Gyasi, Wes Bentley, Casey Affleck, Jon Lithgow, Matt Damon--Tarif: Yerda insoniyat qurg'oqchilik oqibatida oziq-ovqat inqirozini boshdan kechiradi, tadqiqotchilar va olimlar jamoasi kelajakda insoniyatni boshqa sayyoraga ko'chib o'tish uchun munosib sayyora topish maqsadida kosmosdagi tuynuk orqali kosmonavtlar guruhini kosmik sayohatga yuboradi.--Kinofilm reytingi: kinopoisk.ru
--Videoning sifati: BDRip
Videoning formati: MKV--Video: MPEG4 Video (H264) 1024x576 23.976fps [V: Enigma [eng] (h264 high L4.1, yuv420p, 1024x576) [default]]
Audio: AAC 44100Hz stereo [A: Kinoteatr [uzb] (aac lc, 44100 Hz, stereo)]
Audio: AAC 44100Hz stereo [A: MY5 [uzb] (aac lc, 44100 Hz, stereo)]
Audio: Dolby AC3 48000Hz stereo 384kbps [A: DUB (Line) [rus] (ac3, 48000 Hz, stereo, 384 kb/s)]
Audio: Dolby AC3 48000Hz 6ch 448kbps [A: English [eng] (ac3, 48000 Hz, 5.1, 448 kb/s)]
Subtitle: UTF-8 [S: English [eng] (subrip)]--

MediaInfo

General
Unique ID : 237082538591403084757641145500695914400 (0xB25C6FA015BFA06CAE2124992C85E7A0)
Complete name : D:\MEDIA\kino\uztreckers\Interstellar.2014.BDRip.uz.ru.en.mkv
Format : Matroska
Format version : Version 4 / Version 2
File size : 3.39 GiB
Duration : 2 h 49 min
Overall bit rate : 2 874 kb/s
Movie name : Interstellar 2014 from ExKinoRay
Encoded date : UTC 2018-03-09 19:04:53
Writing application : mkvmerge v20.0.0 ('I Am The Sun') 64-bit
Writing library : libebml v1.3.5 + libmatroska v1.4.8
Video
ID : 1
Format : AVC
Format/Info : Advanced Video Codec
Format profile : High@L4.1
Format settings, CABAC : Yes
Format settings, RefFrames : 10 frames
Codec ID : V_MPEG4/ISO/AVC
Duration : 2 h 49 min
Bit rate : 1 788 kb/s
Width : 1 024 pixels
Height : 576 pixels
Display aspect ratio : 16:9
Frame rate mode : Constant
Frame rate : 23.976 (24000/1001) FPS
Color space : YUV
Chroma subsampling : 4:2:0
Bit depth : 8 bits
Scan type : Progressive
Bits/(Pixel*Frame) : 0.126
Stream size : 2.11 GiB (62%)
Title : Enigma
Writing library : x264 core 133 r2334 a3ac64b
Encoding settings : cabac=1 / ref=10 / deblock=1:-2:-2 / analyse=0x3:0x113 / me=umh / subme=10 / psy=1 / psy_rd=1.05:0.15 / mixed_ref=1 / me_range=32 / chroma_me=1 / trellis=2 / 8x8dct=1 / cqm=0 / deadzone=21,11 / fast_pskip=0 / chroma_qp_offset=-3 / threads=12 / lookahead_threads=2 / sliced_threads=0 / nr=0 / decimate=0 / interlaced=0 / bluray_compat=0 / constrained_intra=0 / bframes=9 / b_pyramid=2 / b_adapt=2 / b_bias=0 / direct=3 / weightb=1 / open_gop=0 / weightp=2 / keyint=240 / keyint_min=23 / scenecut=40 / intra_refresh=0 / rc=2pass / mbtree=0 / bitrate=1788 / ratetol=1.0 / qcomp=0.60 / qpmin=0 / qpmax=51 / qpstep=4 / cplxblur=20.0 / qblur=0.5 / ip_ratio=1.40 / pb_ratio=1.30 / aq=1:1.00
Language : English
Default : Yes
Forced : No
Color range : Limited
Color primaries : BT.709
Transfer characteristics : BT.709
Matrix coefficients : BT.709
Audio #1
ID : 2
Format : AAC
Format/Info : Advanced Audio Codec
Format profile : LC
Codec ID : A_AAC
Duration : 2 h 49 min
Bit rate : 126 kb/s
Channel(s) : 2 channels
Channel positions : Front: L R
Sampling rate : 44.1 kHz
Frame rate : 43.066 FPS (1024 SPF)
Compression mode : Lossy
Stream size : 152 MiB (4%)
Title : Kinoteatr
Language : Uzbek
Default : No
Forced : No
Audio #2
ID : 3
Format : AAC
Format/Info : Advanced Audio Codec
Format profile : LC
Codec ID : A_AAC
Duration : 2 h 49 min
Bit rate : 126 kb/s
Channel(s) : 2 channels
Channel positions : Front: L R
Sampling rate : 44.1 kHz
Frame rate : 43.066 FPS (1024 SPF)
Compression mode : Lossy
Stream size : 152 MiB (4%)
Title : MY5
Language : Uzbek
Default : No
Forced : No
Audio #3
ID : 4
Format : AC-3
Format/Info : Audio Coding 3
Format settings, Endianness : Big
Codec ID : A_AC3
Duration : 2 h 49 min
Bit rate mode : Constant
Bit rate : 384 kb/s
Channel(s) : 2 channels
Channel positions : Front: L R
Sampling rate : 48.0 kHz
Frame rate : 31.250 FPS (1536 SPF)
Bit depth : 16 bits
Compression mode : Lossy
Stream size : 464 MiB (13%)
Title : DUB (Line)
Language : Russian
Service kind : Complete Main
Default : No
Forced : No
Audio #4
ID : 5
Format : AC-3
Format/Info : Audio Coding 3
Format settings, Endianness : Big
Codec ID : A_AC3
Duration : 2 h 49 min
Bit rate mode : Constant
Bit rate : 448 kb/s
Channel(s) : 6 channels
Channel positions : Front: L C R, Side: L R, LFE
Sampling rate : 48.0 kHz
Frame rate : 31.250 FPS (1536 SPF)
Bit depth : 16 bits
Compression mode : Lossy
Stream size : 542 MiB (16%)
Language : English
Service kind : Complete Main
Default : No
Forced : No
Text
ID : 6
Format : UTF-8
Codec ID : S_TEXT/UTF8
Codec ID/Info : UTF-8 Plain Text
Duration : 2 h 47 min
Bit rate : 58 b/s
Count of elements : 2097
Stream size : 72.4 KiB (0%)
Language : English
Default : No
Forced : No
Filmdan lavhalar
Profil ShX

Najmiddin

Jins:
Ko‘rsatilmagan
Staj:
7 oy 22 kun
Xabarlar:
1
Taqiq:

ko'chirilmidigon torrentlayu ko'pi

Mavzu yaratish 19-Apr-2018 11:59 (1 oy 8 kun o‘tgach)

Iqitibos

Profil ShX
Xabarlarni ko‘rsatish:    

Hozirgi vaqt: 11-Dek 21:36

Vaqtlar farqi: UTC + 5



Siz mavzu yaratishingiz mumkin emas
Siz xabarlarga javob qaytarishingiz mumkin emas
Siz o‘z xabarlaringizni tahrirlashingiz mumkin emas
Siz o‘z xabarlaringizni o‘chirishingiz mumkin emas
Siz so‘rovlarda ovoz berishingiz mumkin emas
Siz xabalarga fayllarni biriktirishingiz mumkin emas
Siz fayllarni ko‘chirishingiz mumkin emas