˂
˃
Tarqatmalar statistikasi
Ko‘chiraman: [ 1 ]
Ko‘chirmoqdaman: [ 3 ]
Ko‘chirib bo‘ldim: [ 2 ]
 
     
 
 

Lock ®

Jins:
Yigit
Staj:
2 oy 1 kun
Xabarlar:
9

Qayerdan: Namangan

Taqiq:

Ishdagi ishq | Служебный роман
Chiqqan yili: 1977
Davlat: SSSR
Janr: Drama/Melodrama
Davomiyligi: 02:36:40
Tarjima: Professional (dublyaj qilingan)
Rejissyor: Eldar Ryazanov
Rollarda: Alisa Freyndlix, Andrey Vasilyevich Myagkov, Nemolyayeva Svetlana Vladimirovna, Basilashvili Oleg Valerianovich, Liya Medjidovna Axedjakova, Ivanova Lyudmila Ivanovna va boshqalar.
Tavsif: Anatoliy Yefremovich Novoseltsev, statistika byurosi odatdagidek ishchisi, qo'rqoq va uyatchan odam. Uning uchun bo'sh turgan bo'lim mudiri lavozimini egallash yaxshi bo'lar edi. ammo u bu ishni qanday qilish kerakligini bilmaydi. Uning birga o'qigan do'sti Samoxvalov ahmoqona maslahat beradi va shundan so'ng qiziqarli hamda kulguli voqealar sodir bo'ladi.

Videoning sifati: HDRip
Video format: MKV
Video: MPEG4, 948x720 (3:4), 3818 kbps, 23,976 fps, 0,233 bpp
Audio: Rus tilida / AC3 / 5.1 / 48 kHz / 448 kbps / RUS
Audio 2: Uzbek / MP3 / 2.0 / 48 kHz / 128 kbps / UZB
Subtitrlar: Mavjud emas

Media Info

Video
ID : 1
Format : AVC
Format/Info : Advanced Video Codec
Format profile : High@L4.1
Format settings : CABAC / 8 Ref Frames
Format settings, CABAC : Yes
Format settings, ReFrames : 8 frames
Codec ID : V_ /ISO/AVC
Duration : 2 h 36 min
Bit rate : 3 818 kb/s
Width : 948 pixels
Height : 720 pixels
Display aspect ratio : 4:3
Frame rate mode : Constant
Frame rate : 23.976 FPS
Color space : YUV
Chroma subsampling : 4:2:0
Bit depth : 8 bits
Scan type : Progressive
Bits/(Pixel*Frame) : 0.233
Stream size : 4.08 GiB (85%)
Audio #1
ID : 2
Format : MPEG Audio
Format version : Version 1
Format profile : Layer 3
Format settings : Joint stereo / MS Stereo
Codec ID : A_MPEG/L3
Codec ID/Hint : MP3
Duration : 2 h 36 min
Bit rate mode : Constant
Bit rate : 128 kb/s
Channel(s) : 2 channels
Sampling rate : 44.1 kHz
Compression mode : Lossy
Stream size : 143 MiB (3%)
Title : O`zbek tilida, Professional litsenziya
Writing library : LAME3.97
Language : Uzbek
Default : No
Forced : No
Audio #2
ID : 3
Format : AC-3
Format/Info : Audio Coding 3
Codec ID : A_AC3
Duration : 2 h 36 min
Bit rate mode : Constant
Bit rate : 448 kb/s
Channel(s) : 6 channels
Channel positions : Front: L C R, Side: L R, LFE
Sampling rate : 48.0 kHz
Frame rate : 31.250 FPS (1536 SPF)
Bit depth : 16 bits
Compression mode : Lossy
Stream size : 502 MiB (10%)
Title : Rus tilida, Original
Language : Russian
Service kind : Complete Main
Default : Yes
Forced : No
Profil ShX

Lock ®

Jins:
Yigit
Staj:
2 oy 1 kun
Xabarlar:
9

Qayerdan: Namangan

Taqiq:

Sobiq uztracker adminlaridan birining ishi, Lazizbek adashmasam ismlari

Mavzu yaratish 17-Okt-2018 13:03 (9 daqiqa o‘tgach)

Iqitibos

Profil ShX
Xabarlarni ko‘rsatish:    

Hozirgi vaqt: 11-Dek 02:57

Vaqtlar farqi: UTC + 5



Siz mavzu yaratishingiz mumkin emas
Siz xabarlarga javob qaytarishingiz mumkin emas
Siz o‘z xabarlaringizni tahrirlashingiz mumkin emas
Siz o‘z xabarlaringizni o‘chirishingiz mumkin emas
Siz so‘rovlarda ovoz berishingiz mumkin emas
Siz xabalarga fayllarni biriktirishingiz mumkin emas
Siz fayllarni ko‘chirishingiz mumkin emas