˂
˃
Tarqatmalar statistikasi
Ko‘chirmoqdaman: [ 2 ]
Ko‘chirib bo‘ldim: [ 2 ]
 
     
 
 

Soft-Release ®

Jins:
Yigit
Staj:
10 oy 8 kun
Xabarlar:
743

Qayerdan: Kattakurgan

Taqiq:

Iztopar Afsonasi / Легенда об Искателе / Legend of the Seeker- Chiqqan Yili: 2008-2010
Davlat: AQSH
Janr: Fantastika, Triller, Drama, Komediya, Sarguzasht
Davomiyligi: 1x ~00:43:00
Tarjima: Dublyaj Qilingan [O'zbek Tilida]-Rejissyor: Mark Bisli, Gart Maksvell, Maykl Hyorst-Rollarda: Kreyg Xorner, Bridjet Regan, Bryus Spens, Kreyg Parker, Tabret Betill, Ted Reymi, Kevin J. Uilson, Laura Gordon, Endryu Robertt, Jeffrey Tomas, Benson Jek Entoni, Devid De Latour, Reychel Nesh, Lesley-Enn Brendt , Tanya Nolan, Dilan Xolms, Ben Frensham, Anna Xatchinson, Kelson Xenderson, Xori Ahilene, Jeymie Pasier-Aremstrong, Uilyam Jonson, Jastin Kerry, Piter Dillon, Viki Xofton, Jennifer Raker, Maysi MakLeod-Riera, Ketrin Stiven, Keterinn Kennard, Marek Sumich, Jerri Piter, Kreyg Uolsh Raytson, Bryus Filipps-Tavsif: «Iztopar Afsonasi» («Legend of the Seeker"») seriyasi "Haqiqati Qilichi" - Terra Gudkindning "Sehrgarning birinchi qoida" (Birinchi usta) birinchi romaniga asoslanadi. Bu kitob 1994 yilda nashr etilgan, u vaqtdan beri Terri Gudkindning romanlari dunyoning 20 tiliga tarjima qilingan. Sem Reymi rejissyor emas, balki filmning ijro etuvchisi bo'ladi. Sem Reymi terri Gudkindni ajoyib muallif deb chaqiradi va o'zi o'qigan romanlarini "muxlislar" deb ataydi, va u, "butun oila". "Kecha kechqurun yosh Richard Sayfer oddiy o'rmonchi edi, endi esa Iztopar bo'lib ko'pchilikka yo'l ko'rsatuvchiga aylandi. Og'ir, chunki sehr-jodu quvonch keltirmaydi, balki haqiqat va hokimiyat uchun qimmatga tushadi. Iztopar uchun uch qirolliklarning qora sehrgarlari - Dhara lordi shafqatsiz Darken Rall bilan o'lim jangiga kirishi kerak ... "Ustozning birinchi qoidasida shunday deyilgan: "Odamlar ahmoqdir. Odamlar ahmoqdirlar va agar ularga tushunarli qilib tushuntirilsa deyarli hamma hamma narsaga ishonadi. Odamlar ahmoqdir va yolg'onga ishonishlari mumkin, chunki ular bu haqiqat ekanligiga ishonish yoki haqiqatni bilishdan qo'rqqani uchun. Odamlarning boshliqlari turli xil bilim va e'tiqodga to'la, ularning aksariyati noto'g'ri, ammo odamlar unga ishonishadi. Odamlar ahmoqdir: ular haqiqatni yolg'ondan ajratib olishlari mumkin, lekin bunga qodir ekanliklari shubhasiz. Ularni aldash osonroq.»
- -Sifat: WEBRip
Format: MP4
Video: AVC, 640x360, 24.000 fps, ~500 kbps
Audio: 44.1 kHz, AAC-LC 2/0 (L,R) ch, ~64 kbps
-

MediaInfo

General
Complete name : C:\Фильмы 2017\Iztopar Afsonasi 1 - Fasl O'zbek Tilida\Iztopar Afsonasi 1-Fasl 1-Qism.mp4
Format : MPEG-4
Format profile : Base Media
Codec ID : isom (isom/iso2/avc1/mp41)
File size : 190 MiB
Duration : 47 min 1 s
Overall bit rate : 566 kb/s
Writing application : Lavf57.83.100
Video
ID : 1
Format : AVC
Format/Info : Advanced Video Codec
Format profile : High@L3
Format settings : CABAC / 4 Ref Frames
Format settings, CABAC : Yes
Format settings, ReFrames : 4 frames
Format settings, GOP : M=1, N=72
Codec ID : avc1
Codec ID/Info : Advanced Video Coding
Duration : 47 min 1 s
Duration_FirstFrame : 46 ms
Bit rate : 500 kb/s
Width : 640 pixels
Height : 360 pixels
Display aspect ratio : 16:9
Frame rate mode : Constant
Frame rate : 24.000 FPS
Color space : YUV
Chroma subsampling : 4:2:0
Bit depth : 8 bits
Scan type : Progressive
Bits/(Pixel*Frame) : 0.090
Stream size : 168 MiB (88%)
Writing library : x264 core 152 r2851 ba24899
Encoding settings : cabac=1 / ref=4 / deblock=1:2:2 / analyse=0x3:0x113 / me=hex / subme=2 / psy=1 / psy_rd=1.00:0.00 / mixed_ref=1 / me_range=16 / chroma_me=1 / trellis=0 / 8x8dct=1 / cqm=0 / deadzone=21,11 / fast_pskip=1 / chroma_qp_offset=0 / threads=11 / lookahead_threads=2 / sliced_threads=0 / nr=0 / decimate=1 / interlaced=0 / bluray_compat=0 / constrained_intra=0 / bframes=0 / weightp=2 / keyint=72 / keyint_min=7 / scenecut=0 / intra_refresh=0 / rc_lookahead=40 / rc=abr / mbtree=1 / bitrate=500 / ratetol=1.0 / qcomp=0.60 / qpmin=10 / qpmax=51 / qpstep=4 / ip_ratio=0.91 / aq=1:1.00
Tagged date : UTC 2018-05-25 06:30:18
Audio
ID : 2
Format : AAC
Format/Info : Advanced Audio Codec
Format profile : LC
Codec ID : mp4a-40-2
Duration : 47 min 1 s
Duration_LastFrame : -19 ms
Bit rate mode : Constant
Bit rate : 64.0 kb/s
Channel(s) : 2 channels
Channel positions : Front: L R
Sampling rate : 44.1 kHz
Frame rate : 43.066 FPS (1024 SPF)
Compression mode : Lossy
Stream size : 21.5 MiB (11%)
Default : Yes
Alternate group : 1
Tagged date : UTC 2018-05-25 06:30:18



So‘ngi marta tahrirlandi: Soft-Release (2018-12-09 04:32), Jami tahrirlangan 5 marta
Profil ShX

Soft-Release ®

Jins:
Yigit
Staj:
10 oy 8 kun
Xabarlar:
743

Qayerdan: Kattakurgan

Taqiq:

+ 1-Qism Joylandi!

Mavzu yaratish 07-Dek-2018 12:55 (59 soniya o‘tgach)

Iqitibos

Profil ShX

Soft-Release ®

Jins:
Yigit
Staj:
10 oy 8 kun
Xabarlar:
743

Qayerdan: Kattakurgan

Taqiq:

+ 2-Qism Joynadi! Hohlovchilar Torrent Faylni Yangilab Ko'chirib Oling!

Mavzu yaratish 09-Dek-2018 04:33 (1 kun 15 soat o‘tgach)

Iqitibos

Profil ShX

azizbek

Jins:
Yigit
Staj:
1 yil 2 oy
Xabarlar:
150

Qayerdan: Surxondaryo

Taqiq:

Soft-Release, Sifatini hech bo'lmasa video 720x400 audio 44.1 khz 128 kbit/s qilib taxlang. Agar vaqt topsez. Kino yaxshi ishlangan, yana bir martta ko'ramidik.

Mavzu yaratish 14-Dek-2018 21:54 (5 kun o‘tgach)

Iqitibos

Profil ShX

Soft-Release ®

Jins:
Yigit
Staj:
10 oy 8 kun
Xabarlar:
743

Qayerdan: Kattakurgan

Taqiq:

6996Soft-Release, Sifatini hech bo'lmasa video 720x400 audio 44.1 khz 128 kbit/s qilib taxlang. Agar vaqt topsez. Kino yaxshi ishlangan, yana bir martta ko'ramidik.
azizbek, Qani Edi Sizlardek Professional Bo'lsam! Men Na Movavi Da Ishlashni Na Ovoz Yo'laklar Olish Va Qanday Ularni Joylashtishni Qanday TV dan Zapis Qilishni Hech Qaysisini Bilmayman! Bilganimda Shu Ham Muammomi Qachon HD Formatda Chiqarib Reliz Qilardim! Man Faqat Tayyoriga Ayyor Foydalanuvchiman Holos Boshqalar Kabi! Sizlar Tayyorlagan Narsaga Ayyor Bo'laman! Boriga Shukur Shunisi Ham Topildi OK.RU dan Olib Bu Yerga Reliz Qilayabman!

Mavzu yaratish 18-Dek-2018 18:17 (3 kun o‘tgach)

Iqitibos

Profil ShX
Xabarlarni ko‘rsatish:    

Hozirgi vaqt: 23-Yan 01:28

Vaqtlar farqi: UTC + 5



Siz mavzu yaratishingiz mumkin emas
Siz xabarlarga javob qaytarishingiz mumkin emas
Siz o‘z xabarlaringizni tahrirlashingiz mumkin emas
Siz o‘z xabarlaringizni o‘chirishingiz mumkin emas
Siz so‘rovlarda ovoz berishingiz mumkin emas
Siz xabalarga fayllarni biriktirishingiz mumkin emas
Siz fayllarni ko‘chirishingiz mumkin emas