˂
˃
Tarqatmalar statistikasi
Ko‘chiraman: [ 2 ]
Ko‘chirmoqdaman: [ 3 ]
Ko‘chirib bo‘ldim: [ 18 ]
 
     
 
 

Lock ®

Jins:
Yigit
Staj:
3 oy 13 kun
Xabarlar:
21

Qayerdan: Namangan

Taqiq:

Jahongir Otajonov - Qaddi baland- - Chiqqan yili: 2018
Davlat: O'zbekiston
Janr: Pop
Davomiyligi: 00:03:03- Rejissyor: Rauf Nabiyev- Tavsif: Jahongir Otajonovning Qaddi baland deb nomlangan qo'shig'iga olingan video klip. Dekabr oyida reytingi juda ko'tarilib ketgan qo'shiq- Videoning sifati: WEBRip
Video format: MP4
Video: HEVC 1920x1080 25fps 1256 kb/s
Audio 1: AAC 44100Hz 2ch 128 kb/s
-

Media Info

General
Complete name : G:\Jahongir Otajonov - Qaddi baland.mp4
Format : MPEG-4
Format profile : Base Media
Codec ID : isom (isom/iso2/avc1/mp41)
File size : 58.2 MiB
Duration : 3 min 3 s
Overall bit rate : 2 660 kb/s
Writing application : Lavf58.12.100
Video
ID : 1
Format : AVC
Format/Info : Advanced Video Codec
Format profile : High@L4
Format settings : CABAC / 3 Ref Frames
Format settings, CABAC : Yes
Format settings, ReFrames : 3 frames
Codec ID : avc1
Codec ID/Info : Advanced Video Coding
Duration : 3 min 3 s
Bit rate : 2 526 kb/s
Width : 1 920 pixels
Height : 1 080 pixels
Display aspect ratio : 16:9
Frame rate mode : Constant
Frame rate : 25.000 FPS
Color space : YUV
Chroma subsampling : 4:2:0
Bit depth : 8 bits
Scan type : Progressive
Bits/(Pixel*Frame) : 0.049
Stream size : 55.3 MiB (95%)
Color range : Limited
Color primaries : BT.709
Transfer characteristics : BT.709
Matrix coefficients : BT.709
Audio
ID : 2
Format : AAC
Format/Info : Advanced Audio Codec
Format profile : LC
Codec ID : mp4a-40-2
Duration : 3 min 3 s
Bit rate mode : Constant
Bit rate : 128 kb/s
Channel(s) : 2 channels
Channel positions : Front: L R
Sampling rate : 44.1 kHz
Frame rate : 43.066 FPS (1024 SPF)
Compression mode : Lossy
Stream size : 2.80 MiB (5%)
Language : English
Default : Yes
Alternate group : 1
LAVHALAR
Profil ShX
Xabarlarni ko‘rsatish:    

Hozirgi vaqt: 23-Yan 01:51

Vaqtlar farqi: UTC + 5



Siz mavzu yaratishingiz mumkin emas
Siz xabarlarga javob qaytarishingiz mumkin emas
Siz o‘z xabarlaringizni tahrirlashingiz mumkin emas
Siz o‘z xabarlaringizni o‘chirishingiz mumkin emas
Siz so‘rovlarda ovoz berishingiz mumkin emas
Siz xabalarga fayllarni biriktirishingiz mumkin emas
Siz fayllarni ko‘chirishingiz mumkin emas