˂
˃
Tarqatmalar statistikasi
Ko‘chirmoqdaman: [ 11 ]
Ko‘chirib bo‘ldim: [ 49 ]
 
     
 
 

N.U.R.I.K.B.E.K ®

Jins:
Yigit
Staj:
1 yil 1 oy
Xabarlar:
344

Qayerdan: Jizzax. Paxtakor

Taqiq:

--Jazolash | Расправа | Reprisal--
Chiqqan yili: 2018
Davlat: AQSH, Buyuk Britaniya.
Janr: Jangari, Triller, Jinoyat.
Davomiyligi: 01:29:09
Tarjima: Professional (dublyaj qilingan)
Tarjima #1: Professional (My5TV) O'zbek Tilida
Tarjima #2: Professional (litsenziya) Rus Tilida--Rejissyor: Brayan A Miller,--Rollarda: Bryus Uillis, Frenk Grillo, Jonaton Shek, Olviya Kalpo, Natali Yura, Dyadya Murda, Natalya Sofi Batler, Tayler Jon olson, Uass M Stivens, Kolin Eglsfild.--Tavsif: Bank xodimi uning hamkasbining hayotini olib borgan shafqatsiz tan jarohati bilan qiynoqlarga solinmoqda va u o'z qo'shnisi, tajribali iste'fodagi politsiya xodimi yordamida qaltis va metodik bir vaqtning o'zida qaroqchilarni ovlashga qaror qiladi.--Videoning sifati: WEB-DLRip
Video format: MKV--Video: Xvid 704x384 23.976fps
Audio: MP3 48000Hz stereo 192kbps O'zbek Tili
Audio 2: Dolby AC3 48000Hz stereo 192kbps Rus Tili--

Media Info

General
Format : Matroska
Format version : Version 4 / Version 2
File size : 1.46 GiB
Duration : 1h 29mn
Overall bit rate : 2 337 Kbps
Video
ID : 1
Format : MPEG-4 Visual
Format profile : Advanced Simple@L5
Format settings, BVOP : 1
Format settings, QPel : No
Format settings, GMC : No warppoints
Format settings, Matrix : Custom
Codec ID : V_MS/VFW/FOURCC / XVID
Codec ID/Hint : XviD
Duration : 1h 29mn
Bit rate : 1 906 Kbps
Width : 704 pixels
Height : 384 pixels
Display aspect ratio : 1.85:1
Frame rate mode : Constant
Frame rate : 23.976 fps
Color space : YUV
Chroma subsampling : 4:2:0
Bit depth : 8 bits
Scan type : Progressive
Compression mode : Lossy
Bits/(Pixel*Frame) : 0.294
Stream size : 1.19 GiB (82%)
Writing library : XviD 73
Default : Yes
Forced : No
Audio #1
ID : 2
Format : MPEG Audio
Format version : Version 1
Format profile : Layer 3
Mode : Joint stereo
Mode extension : MS Stereo
Codec ID : A_MPEG/L3
Codec ID/Hint : MP3
Duration : 1h 29mn
Bit rate mode : Constant
Bit rate : 192 Kbps
Channel(s) : 2 channels
Sampling rate : 48.0 KHz
Compression mode : Lossy
Stream size : 122 MiB (8%)
Title : O'zbek Tili
Language : Uzbek
Default : Yes
Forced : No
Audio #2
ID : 3
Format : AC-3
Format/Info : Audio Coding 3
Mode extension : CM (complete main)
Format settings, Endianness : Big
Codec ID : A_AC3
Duration : 1h 29mn
Bit rate mode : Constant
Bit rate : 192 Kbps
Channel(s) : 2 channels
Channel positions : Front: L R
Sampling rate : 48.0 KHz
Compression mode : Lossy
Stream size : 122 MiB (8%)
Title : Rus Tili
Language : Russian
Default : No
Forced : No
LAVHALAR
Profil ShX

BoboMUROD

Jins:
Ko‘rsatilmagan
Staj:
1 yil 2 oy
Xabarlar:
14
Taqiq:

HECH KIM KO`CHIRMAGANKU
Licherlar:
Foydalanuvchi % Tarqatilgan Yuklangan Tarqatma Yuklanma Client
Omadbek1696 0 - - - - -
CLeveR 0 - - - - -
duratan 0 - - - - -
doni77 0 - - - - -
workout2018 0 - - - - -
newgladio 0 - - - - -
Avazbek 0 - - - - -
neymarjr 0 - - - - -
KILLER_89-10 0 - - - - -
Worlout2017 0 - - - - -
Unofficial 0 - - - - -
iJalol_Production 0 - - - - -
mr.azizjons 0 - - - - -
BoboMUROD 0 - - - - -
Anvar26 0 - - - - -

Mavzu yaratish 08-Noy-2018 11:16 (1 kun 15 soat o‘tgach)

Iqitibos

Profil ShX
Xabarlarni ko‘rsatish:    

Hozirgi vaqt: 17-Dek 10:14

Vaqtlar farqi: UTC + 5



Siz mavzu yaratishingiz mumkin emas
Siz xabarlarga javob qaytarishingiz mumkin emas
Siz o‘z xabarlaringizni tahrirlashingiz mumkin emas
Siz o‘z xabarlaringizni o‘chirishingiz mumkin emas
Siz so‘rovlarda ovoz berishingiz mumkin emas
Siz xabalarga fayllarni biriktirishingiz mumkin emas
Siz fayllarni ko‘chirishingiz mumkin emas