˂
˃
Tarqatmalar statistikasi
Ko‘chirmoqdaman: [ 4 ]
Ko‘chirib bo‘ldim: [ 7 ]
 
     
 
 

azizbek ®

Jins:
Yigit
Staj:
1 yil
Xabarlar:
139

Qayerdan: Surxondaryo

Taqiq:

-Jek Richer 2-/ Джек Ричер 2: Никогда не возвращайся-/ Jack Reacher: Never Go Back-
Chiqqan yili: 2016
Davlat: AQSh
Janr: jangari, kriminal, triller, sarguzasht
Davomiyligi: 01:58:29
Tarjima: Professional (MY5 telekanali) o'zbek tilida-Rejissyor: Eduard Zvik
Rollarda: Tom Kruz, Kobi Smulders, Aldis Hodge, Danika Yarosh, Patrik Hyusinger, Uolt MakKellani, Judd Lormand, Kristofer Berry, Hunter Burka, Jeyson Duglas, Lizet Hutchings, Marisela Zumbado-Tavsif: Sobiq zobit Jek Richer Vashntonga sobiq bo'limini boshqarayotgan va ko;plab murkkab vaziyatlar qutqargan Syuzan Tyorner bilan uchrashgani keladi. G'alati tasodif bilan, uning tashrifi arafasida mayyor xiyonat qilganlikda ayblanib hibsga olinadi. Susanning aybsizligiga ishonch komil bo'lgan Jek, uni ozod qilish va muammoning boshida kim turganini ochib berishga urinadi. Haqiqatga erishish uchun u, shuningdek, o'z hayotini bir marta va butunlay o'zgartirishga qodir bo'lgan ajoyib o'zgarishlar qiladi.-Byudjet: $60 000 000
Daromad: $162 146 076
Dunyo premyerasi: 18.10.2016
Yosh chegarasi: 13+-Videoning sifati: BDRip-AVC
Video format: MKV
Video: AVC 1916x800 23.976 FPS 4579 kb/s
Audio #1: MP3 48000Hz stereo 128kbps MY telekanali o'zbek tilida
Audio #2: Dolby AC3 48000Hz 6ch 384kbps rus tilida
Audio #3: Dolby AC3 48000Hz 6ch 384kbps ingliz tilida
Subtitlar: UTF-8 to'liq qisman rus ingliz tillarida-

Media Info

General
Unique ID : 256427376998413146259229111114087127646 (0xC0EA1DCBE0F18BA10FDFCC7CA7ADDA5E)
Complete name : D:\MEDIA\kino\1\Jek.Richer2.2016.BDRip.1080p.mkv
Format : Matroska
Format version : Version 4
File size : 4.53 GiB
Duration : 1 h 58 min
Overall bit rate : 5 475 kb/s
Encoded date : UTC 2018-10-01 08:56:35
Writing application : mkvmerge v20.0.0 ('I Am The Sun') 64-bit
Writing library : libebml v1.3.5 + libmatroska v1.4.8
Video
ID : 1
Format : AVC
Format/Info : Advanced Video Codec
Format profile : High@L4
Format settings : CABAC / 5 Ref Frames
Format settings, CABAC : Yes
Format settings, ReFrames : 5 frames
Codec ID : V_MPEG4/ISO/AVC
Duration : 1 h 58 min
Bit rate : 4 579 kb/s
Width : 1 916 pixels
Height : 800 pixels
Display aspect ratio : 2.40:1
Frame rate mode : Constant
Frame rate : 23.976 FPS
Color space : YUV
Chroma subsampling : 4:2:0
Bit depth : 8 bits
Scan type : Progressive
Bits/(Pixel*Frame) : 0.125
Stream size : 3.79 GiB (84%)
Language : English
Default : Yes
Forced : No
Color range : Limited
Color primaries : BT.709
Transfer characteristics : BT.709
Matrix coefficients : BT.709
Audio #1
ID : 2
Format : MPEG Audio
Format version : Version 1
Format profile : Layer 3
Format settings : Joint stereo / MS Stereo
Codec ID : A_MPEG/L3
Codec ID/Hint : MP3
Duration : 1 h 58 min
Bit rate mode : Constant
Bit rate : 128 kb/s
Channel(s) : 2 channels
Sampling rate : 48.0 kHz
Frame rate : 41.667 FPS (1152 SPF)
Compression mode : Lossy
Stream size : 108 MiB (2%)
Default : No
Forced : No
Audio #2
ID : 3
Format : AC-3
Format/Info : Audio Coding 3
Commercial name : Dolby Digital
Codec ID : A_AC3
Duration : 1 h 58 min
Bit rate mode : Constant
Bit rate : 384 kb/s
Channel(s) : 6 channels
Channel layout : L R C LFE Ls Rs
Sampling rate : 48.0 kHz
Frame rate : 31.250 FPS (1536 SPF)
Bit depth : 16 bits
Compression mode : Lossy
Stream size : 324 MiB (7%)
Title : AC3 5.1 @ 384 kbps - DUB, iTunes
Language : Russian
Service kind : Complete Main
Default : Yes
Forced : No
Audio #3
ID : 4
Format : AC-3
Format/Info : Audio Coding 3
Commercial name : Dolby Digital
Codec ID : A_AC3
Duration : 1 h 58 min
Bit rate mode : Constant
Bit rate : 384 kb/s
Channel(s) : 6 channels
Channel layout : L R C LFE Ls Rs
Sampling rate : 48.0 kHz
Frame rate : 31.250 FPS (1536 SPF)
Bit depth : 16 bits
Compression mode : Lossy
Stream size : 324 MiB (7%)
Title : AC3 5.1 @ 384 kbps
Language : English
Service kind : Complete Main
Default : No
Forced : No
Text #1
ID : 5
Format : UTF-8
Codec ID : S_TEXT/UTF8
Codec ID/Info : UTF-8 Plain Text
Duration : 1 h 13 min
Bit rate : 0 b/s
Count of elements : 8
Stream size : 406 Bytes (0%)
Title : Forced, iTunes
Language : Russian
Default : Yes
Forced : No
Text #2
ID : 6
Format : UTF-8
Codec ID : S_TEXT/UTF8
Codec ID/Info : UTF-8 Plain Text
Duration : 1 h 52 min
Bit rate : 79 b/s
Count of elements : 1277
Stream size : 65.5 KiB (0%)
Title : iTunes
Language : Russian
Default : No
Forced : No
Text #3
ID : 7
Format : UTF-8
Codec ID : S_TEXT/UTF8
Codec ID/Info : UTF-8 Plain Text
Duration : 1 h 51 min
Bit rate : 50 b/s
Count of elements : 1387
Stream size : 41.2 KiB (0%)
Title : Full
Language : English
Default : No
Forced : No
Menu
00:00:00.000 : en:Chapter 1
00:06:59.000 : en:Chapter 2
00:15:19.000 : en:Chapter 3
00:20:33.000 : en:Chapter 4
00:29:03.000 : en:Chapter 5
00:34:34.000 : en:Chapter 6
00:42:39.000 : en:Chapter 7
00:49:27.000 : en:Chapter 8
00:58:43.000 : en:Chapter 9
01:03:09.000 : en:Chapter 10
01:09:34.000 : en:Chapter 11
01:15:04.000 : en:Chapter 12
01:21:58.000 : en:Chapter 13
01:27:06.000 : en:Chapter 14
01:34:13.000 : en:Chapter 15
01:46:43.000 : en:Chapter 16
01:53:30.000 : en:Chapter 17

Treyler-qisqacha film haqida(mover.uz) video



So‘ngi marta tahrirlandi: azizbek (2018-10-01 15:42), Jami tahrirlangan 1 marta
Profil ShX

MRLG

Jins:
Yigit
Staj:
1 yil 3 oy
Xabarlar:
524
Taqiq:

626624fps
23.976 FPS ga to'g'rilang.

Mavzu yaratish 01-Okt-2018 14:59 (9 daqiqa o‘tgach)

Iqitibos

Profil ShX

Evropa

Jins:
Ko‘rsatilmagan
Staj:
7 oy 14 kun
Xabarlar:
11
Taqiq:

Bu IMAX emas

Mavzu yaratish 04-Okt-2018 20:59 (3 kun o‘tgach)

Iqitibos

Profil ShX

MRLG

Jins:
Yigit
Staj:
1 yil 3 oy
Xabarlar:
524
Taqiq:

Evropa, To'ppa to'g'ri bu shunchaki muqovada imax deb yozilgan.

Mavzu yaratish 04-Okt-2018 21:11 (11 daqiqa o‘tgach)

Iqitibos

Profil ShX

azizbek ®

Jins:
Yigit
Staj:
1 yil
Xabarlar:
139

Qayerdan: Surxondaryo

Taqiq:

6301Bu IMAX emas
Muqovani shunisi uchrab qoldi xolos, Agar IMAX bo'lganida Uzonline bilan 2019 yilgacha tarqatardim, ko'chiradiganlar sabr toqatli bo'lganida

Mavzu yaratish 04-Okt-2018 23:51 (2 soat 39 daqiqa o‘tgach)

Iqitibos

Profil ShX
Xabarlarni ko‘rsatish:    

Hozirgi vaqt: 19-Noy 04:08

Vaqtlar farqi: UTC + 5



Siz mavzu yaratishingiz mumkin emas
Siz xabarlarga javob qaytarishingiz mumkin emas
Siz o‘z xabarlaringizni tahrirlashingiz mumkin emas
Siz o‘z xabarlaringizni o‘chirishingiz mumkin emas
Siz so‘rovlarda ovoz berishingiz mumkin emas
Siz xabalarga fayllarni biriktirishingiz mumkin emas
Siz fayllarni ko‘chirishingiz mumkin emas