Tarqatmalar statistikasi
Ko‘chirib bo‘ldim: [ 1 ]
 
     
 
 

MRLG ®

Jins:
Yigit
Staj:
11 oy 6 kun
Xabarlar:
379
Taqiq:

Jek Richer / Джек Ричер / Jack Reacher -««Qonunni ham chegarasi bor. Unda esa yo'q»»- -
Chiqqan yili: 2012
Davlat: AQSH
Janr: jangari, triller, detektiv
Davomiyligi: 02:10:24
Tarjima: Rus dublyaj + NTT + Yoshlar- Rejissiyor: Kristofer MakKuorri / Christopher McQuarrie- Rollarda:
-Tom Kruz, Rozamund Payk, Djay Kortni, Devid Oyelouo, Richard Djenkins, Robert Dyuvall, Verner Xersog, Djozef Sikora, Maykl Reymond-Djeyms, Aleksiya Fast, Vladimir Sizov, Djosh Xelman- Tavsif:
Snayper shu yerdan tasodifan o'tib ketayotgan bir nechta odamni o'ldiradi. Uni topishadi va qo'lga olishadi . Barcha dalillar uni ko'rsatyapti. So'roq vaqtida ayblarini tan olish o'rniga u Jek Richer ismini yozadi. Ayblanuvchi mahbuslar tomonidan kaltaklangandan so'ng, boshqa hech nima ayta olmay qoladi, chunki u komaga tushib qoladi. Tez orada sirli Jek Richer paydo bo'ladi. Endi qotil bilan nima bo'ladi?-Dunyo primyerasi: 10 dekabr 2012
КиноПоиск: 7.165 (78 058)
IMDb: 7.00 (245 925)- Sifat: HDRip
Format: AVI
Video: XviD, 720x304 (2.35:1), 1798 kbps, 23,976 fps, 0,343 bpp
Audio №1: MP3 / 2.0 / 48 kHz / 128 kbps / - NTT (Professional dublyaj. Kadr ortidan)
Audio №2: MP3 / 2.0 / 48 kHz / 128 kbps / - Yoshlar (Professional dublyaj. Kadr ortidan)
Audio №3: AC3 / 5.1 / 48 kHz / 448 kbps / - Rus tilida (iTunes)-

〤 Media Info

General
Complete name                            : D:\Кино\Tarjima filmlar\Jek.Richer.2012.HDRip_[2xUz.Dub+Rus].avi
Format                                   : AVI
Format/Info                              : Audio Video Interleave
Format profile                           : OpenDML
File size                                : 2.30 GiB
Duration                                 : 2 h 10 min
Overall bit rate                         : 2 526 kb/s
Writing application                      : VirtualDubMod 1.5.10.3 | www.virtualdub-fr.org || (build 2550/release)
Writing library                          : VirtualDubMod build 2550/release
Video
ID                                       : 0
Format                                   : MPEG-4 Visual
Format profile                           : Advanced Simple@L5
Format settings, BVOP                    : 2
Format settings, QPel                    : No
Format settings, GMC                     : No warppoints
Format settings, Matrix                  : Default (MPEG)
Muxing mode                              : Packed bitstream
Codec ID                                 : XVID
Codec ID/Hint                            : XviD
Duration                                 : 2 h 10 min
Bit rate                                 : 1 799 kb/s
Width                                    : 720 pixels
Height                                   : 304 pixels
Display aspect ratio                     : 2.35:1
Frame rate                               : 23.976 (23976/1000) FPS
Color space                              : YUV
Chroma subsampling                       : 4:2:0
Bit depth                                : 8 bits
Scan type                                : Progressive
Compression mode                         : Lossy
Bits/(Pixel*Frame)                       : 0.343
Stream size                              : 1.64 GiB (71%)
Writing library                          : XviD 1.2.1 (UTC 2008-12-04)
Audio #1
ID                                       : 1
Format                                   : MPEG Audio
Format version                           : Version 1
Format profile                           : Layer 3
Codec ID                                 : 55
Codec ID/Hint                            : MP3
Duration                                 : 2 h 10 min
Bit rate mode                            : Constant
Bit rate                                 : 128 kb/s
Channel(s)                               : 2 channels
Sampling rate                            : 48.0 kHz
Compression mode                         : Lossy
Stream size                              : 119 MiB (5%)
Alignment                                : Aligned on interleaves
Interleave, duration                     : 42  ms (1.00 video frame)
Interleave, preload duration             : 504  ms
Writing library                          : LAME3.99r
Encoding settings                        : -m s -V 4 -q 2 -lowpass 17 -b 128
Audio #2
ID                                       : 2
Format                                   : MPEG Audio
Format version                           : Version 1
Format profile                           : Layer 3
Codec ID                                 : 55
Codec ID/Hint                            : MP3
Duration                                 : 2 h 10 min
Bit rate mode                            : Constant
Bit rate                                 : 128 kb/s
Channel(s)                               : 2 channels
Sampling rate                            : 48.0 kHz
Compression mode                         : Lossy
Stream size                              : 119 MiB (5%)
Alignment                                : Aligned on interleaves
Interleave, duration                     : 42  ms (1.00 video frame)
Interleave, preload duration             : 504  ms
Writing library                          : LAME3.99r
Encoding settings                        : -m s -V 4 -q 2 -lowpass 17 -b 128
Audio #3
ID                                       : 3
Format                                   : AC-3
Format/Info                              : Audio Coding 3
Mode extension                           : CM (complete main)
Format settings, Endianness              : Big
Codec ID                                 : 2000
Duration                                 : 2 h 10 min
Bit rate mode                            : Constant
Bit rate                                 : 448 kb/s
Channel(s)                               : 6 channels
Channel positions                        : Front: L C R, Side: L R, LFE
Sampling rate                            : 48.0 kHz
Frame rate                               : 31.250 FPS (1536 spf)
Compression mode                         : Lossy
Stream size                              : 418 MiB (18%)
Alignment                                : Split accross interleaves
Interleave, duration                     : 42  ms (1.00 video frame)
Interleave, preload duration             : 500  ms

Miniatyura

Skrinshotlar
- © Template by MRLG
Profil ShX

UZTEXNO

Jins:
Yigit
Staj:
10 oy 30 kun
Xabarlar:
24
Taqiq:

219
Audio №1: MP3 / 2.0 / 48 kHz / 128 kbps / - NTT (Professional dublyaj. Kadr ortidan)
Audio №2: MP3 / 2.0 / 48 kHz / 128 kbps / - Yoshlar (Professional dublyaj. Kadr ortidan)
Vau 2 ta tarjima zoru) Qoyil.

Mavzu yaratish 30-Sen-2017 13:45 (17 daqiqa o‘tgach)

Iqitibos

Profil ShX

Frozen

Jins:
Yigit
Staj:
11 oy 4 kun
Xabarlar:
58

Qayerdan: Toshkent, Navoi

Taqiq:

Gap yuq, Qoyil. Endi sidda ham turib bering ))

Mavzu yaratish 01-Okt-2017 22:38 (1 kun 8 soat o‘tgach)

Iqitibos

Profil ShX

MRLG ®

Jins:
Yigit
Staj:
11 oy 6 kun
Xabarlar:
379
Taqiq:

Mana endida sidda turib beramiz.

Mavzu yaratish 02-Okt-2017 18:22 (19 soat o‘tgach)

Iqitibos

Profil ShX
Xabarlarni ko‘rsatish:    

Hozirgi vaqt: 23-Iyul 03:24

Vaqtlar farqi: UTC + 5



Siz mavzu yaratishingiz mumkin emas
Siz xabarlarga javob qaytarishingiz mumkin emas
Siz o‘z xabarlaringizni tahrirlashingiz mumkin emas
Siz o‘z xabarlaringizni o‘chirishingiz mumkin emas
Siz so‘rovlarda ovoz berishingiz mumkin emas
Siz xabalarga fayllarni biriktirishingiz mumkin emas
Siz fayllarni ko‘chirishingiz mumkin emas