˂
˃
Tarqatmalar statistikasi
Ko‘chirmoqdaman: [ 6 ]
 
     
 
 

Unofficial ®

Jins:
Yigit
Staj:
8 oy 14 kun
Xabarlar:
445

Qayerdan: Nukus

Taqiq:

-Jeyson Born | Джейсон Борн | Jason Bourne- -
Chiqqan yili: 2016
Davlat: AQSH
Janr: Jangari, Triller
Davomiyligi: 01:57:57
Tarjima: Professional (dublyaj qilingan) O'zbek tilida
Tarjima 2: Professional (dublyaj qilingan) Rus tilida-Rejissyor: Pol Gringrass-Rollarda: Met Deymon, Alisiya Vikander, Tommi Li Jons, Vensan Kassel, Juliya Staylz, Riz Ahmed, Ato Essonda, Skot SheperdBill Kemp, Vinses Kifer-Tavsif: Dunyo falokat yoqasida, va qaytib kelish vaqti keldi. Napoli, Myunxen, Nyu-York - uning nomi har joyda ma'lum. Elita super-agenti, hatto eng yaxshi Las-Vegas da, o'yin uning qoidalariga amal qiladi. U Jeyson Born-Videoning sifati: TVRip
Video format: AVI-Video: AVC, 1046x576, 1 442 kb/s, 25 000 FPS
Audio: MP3, 128kb/s, 2 ch, 48.0 kHz Uzbek
Audio #2: MP3, 128kb/s, 2 ch, 48.0 kHz Russian-

Media Info

General
ID                             : 25 (0x19)
Format                         : MPEG-TS
File size                      : 1.47 GiB
Duration                       : 1 h 57 min
Overall bit rate mode          : Variable
Overall bit rate               : 1 789 kb/s
FileExtension_Invalid          : ts m2t m2s m4t m4s tmf ts tp trp ty
Video
ID                             : 210 (0xD2)
Menu ID                        : 10 (0xA)
Format                         : AVC
Format/Info                    : Advanced Video Codec
Format profile                 : Main@L3
Format settings, CABAC         : Yes
Format settings, ReFrames      : 4 frames
Codec ID                       : 27
Duration                       : 1 h 57 min
Bit rate                       : 1 442 kb/s
Width                          : 1046 pixels
Height                         : 576 pixels
Display aspect ratio           : 16:9
Frame rate                     : 25.000 FPS
Standard                       : PAL
Color space                    : YUV
Chroma subsampling             : 4:2:0
Bit depth                      : 8 bits
Scan type                      : Interlaced
Scan type, store method        : Separated fields
Scan order                     : Top Field First
Bits/(Pixel*Frame)             : 0.139
Stream size                    : 1.19 GiB (81%)
Color range                    : Limited
Color primaries                : BT.601 PAL
Transfer characteristics       : BT.470 System B, BT.470 System G
Matrix coefficients            : BT.601
Audio #1
ID                             : 310 (0x136)
Menu ID                        : 10 (0xA)
Format                         : MPEG Audio
Format version                 : Version 1
Format profile                 : Layer 2
Codec ID                       : 4
Duration                       : 1 h 57 min
Bit rate mode                  : Constant
Bit rate                       : 128 kb/s
Channel(s)                     : 2 channels
Sampling rate                  : 48.0 kHz
Compression mode               : Lossy
Delay relative to video        : -1 s 526 ms
Stream size                    : 108 MiB (7%)
Language                       : Uzbek
Audio #2
ID                             : 4310 (0x10D6)
Menu ID                        : 10 (0xA)
Format                         : MPEG Audio
Format version                 : Version 1
Format profile                 : Layer 2
Codec ID                       : 3
Duration                       : 1 h 57 min
Bit rate mode                  : Constant
Bit rate                       : 128 kb/s
Channel(s)                     : 2 channels
Sampling rate                  : 48.0 kHz
Compression mode               : Lossy
Delay relative to video        : -1 s 494 ms
Stream size                    : 108 MiB (7%)
Language                       : Russian
Menu
ID                             : 110 (0x6E)
Menu ID                        : 10 (0xA)
Duration                       : 1 h 57 min
List                           : 210 (0xD2) (AVC) / 310 (0x136) (MPEG Audio, Uzbek) / 4310 (0x10D6) (MPEG Audio, Russian)
Language                       :  / Uzbek / Russian
-
Profil ShX
Xabarlarni ko‘rsatish:    

Hozirgi vaqt: 11-Dek 03:29

Vaqtlar farqi: UTC + 5



Siz mavzu yaratishingiz mumkin emas
Siz xabarlarga javob qaytarishingiz mumkin emas
Siz o‘z xabarlaringizni tahrirlashingiz mumkin emas
Siz o‘z xabarlaringizni o‘chirishingiz mumkin emas
Siz so‘rovlarda ovoz berishingiz mumkin emas
Siz xabalarga fayllarni biriktirishingiz mumkin emas
Siz fayllarni ko‘chirishingiz mumkin emas