˂
˃
Tarqatmalar statistikasi
Yoʻq
 
     
 
 

Gr@nd ®

Jins:
Yigit
Staj:
1 yil 1 oy
Xabarlar:
158

Qayerdan: Jizzax Forish

Taqiq:

- -Jeyson Born | Jason Bourne- -Davlat: AQSH, Captivate Entertainment, Double Negative, Universal Pictures
Janr: Jangari, Triller
Chiqqan yili: 2016
Davomiyligi: 02:03:12-Tarjima: Professional (dublyaj qilingan) O'zbek tilida-Rejissiyor: Pol Gringrass-Rollarda: Met Deymon, Alisiya Vikander, Tommi Li Jons, Vensan Kassel, Juliya Staylz, Riz Ahmed, Ato Essonda, Skot SheperdBill Kemp, Vinses Kifer-Описание: Dunyo falokat yoqasida, va qaytib kelish vaqti keldi. Napoli, Myunxen, Nyu-York - uning nomi har joyda ma'lum. Elita super-agenti, hatto eng yaxshi Las-Vegas da, o'yin uning qoidalariga amal qiladi. U Jeyson Bourne.-Videoning sifati: BDRip
Формат видео: MKV-Video: MPEG4 Video (H264) 1280x536 23.976fps 4 840 Kbps
Audio: Dolby AC3 48000Hz / 6ch / 384 kbps Rus
Audio: Dolby AC3 48000Hz / 6ch / 448 kbps Eng
Audio: MP3 48000Hz / 2ch / 128kbps Uzb
-

MediaInfo

General
Unique ID : 191294930483489964195433114254279631718 (0x8FEA104068061339B04A2F4C2E2AE366)
Format : Matroska
Format version : Version 4 / Version 2
File size : 5.96 GiB
Duration : 2h 3mn
Overall bit rate : 6 926 Kbps
Movie name : Xusan_Gr@nd
Encoded date : UTC 2017-01-02 07:39:54
Writing application : mkvmerge v6.8.0 ('Theme for Great Cities') 64bit built on Mar 2 2014 21:34:26
Writing library : libebml v1.3.0 + libmatroska v1.4.1
Video
ID : 1
Format : AVC
Format/Info : Advanced Video Codec
Format profile : High@L4.1
Format settings, CABAC : Yes
Format settings, ReFrames : 5 frames
Codec ID : V_MPEG4/ISO/AVC
Duration : 2h 3mn
Bit rate : 4 840 Kbps
Width : 1 280 pixels
Height : 536 pixels
Display aspect ratio : 2.40:1
Frame rate : 23.976 fps
Color space : YUV
Chroma subsampling : 4:2:0
Bit depth : 8 bits
Scan type : Progressive
Bits/(Pixel*Frame) : 0.294
Stream size : 4.05 GiB (68%)
Writing library : x264 core 148 r2705 3f5ed56
Encoding settings : cabac=1 / ref=5 / deblock=1:0:0 / analyse=0x3:0x133 / me=umh / subme=7 / psy=1 / psy_rd=1.00:0.00 / mixed_ref=1 / me_range=16 / chroma_me=1 / trellis=1 / 8x8dct=1 / cqm=0 / deadzone=21,11 / fast_pskip=0 / chroma_qp_offset=-2 / threads=12 / lookahead_threads=2 / sliced_threads=0 / nr=0 / decimate=1 / interlaced=0 / bluray_compat=0 / constrained_intra=0 / bframes=3 / b_pyramid=2 / b_adapt=1 / b_bias=0 / direct=1 / weightb=1 / open_gop=0 / weightp=2 / keyint=250 / keyint_min=23 / scenecut=40 / intra_refresh=0 / rc_lookahead=40 / rc=2pass / mbtree=1 / bitrate=4840 / ratetol=1.0 / qcomp=0.60 / qpmin=0 / qpmax=69 / qpstep=4 / cplxblur=20.0 / qblur=0.5 / ip_ratio=1.40 / aq=1:1.00
Language : English
Default : Yes
Forced : No
Audio #1
ID : 2
Format : AC-3
Format/Info : Audio Coding 3
Mode extension : CM (complete main)
Format settings, Endianness : Big
Codec ID : A_AC3
Duration : 2h 3mn
Bit rate mode : Constant
Bit rate : 448 Kbps
Channel(s) : 6 channels
Channel positions : Front: L C R, Side: L R, LFE
Sampling rate : 48.0 KHz
Bit depth : 16 bits
Compression mode : Lossy
Stream size : 395 MiB (6%)
Language : Russian
Default : Yes
Forced : No
Audio #2
ID : 3
Format : DTS
Format/Info : Digital Theater Systems
Codec ID : A_DTS
Duration : 2h 3mn
Bit rate mode : Constant
Bit rate : 1 510 Kbps
Channel(s) : 6 channels
Channel positions : Front: L C R, Side: L R, LFE
Sampling rate : 48.0 KHz
Bit depth : 24 bits
Compression mode : Lossy
Stream size : 1.30 GiB (22%)
Language : English
Default : No
Forced : No
Audio #3
ID : 4
Format : MPEG Audio
Format version : Version 1
Format profile : Layer 3
Mode : Joint stereo
Mode extension : MS Stereo
Codec ID : A_MPEG/L3
Codec ID/Hint : MP3
Duration : 2h 3mn
Bit rate mode : Constant
Bit rate : 128 Kbps
Channel(s) : 2 channels
Sampling rate : 44.1 KHz
Compression mode : Lossy
Stream size : 113 MiB (2%)
Title : Xusan_Gr@nd
Writing library : LAME3.98.2
Language : Uzbek
Default : No
Forced : No
Profil ShX

Nematillo

Jins:
Ko‘rsatilmagan
Staj:
1 yil 2 oy
Xabarlar:
10
Taqiq:

a oltin tarqatma qilishning iloji bormi ?

Mavzu yaratish 12-Noy-2017 22:31 (5 soat o‘tgach)

Iqitibos

Profil ShX

Nematillo

Jins:
Ko‘rsatilmagan
Staj:
1 yil 2 oy
Xabarlar:
10
Taqiq:

bu yil yuklab ololarmikinmiz a ?

Mavzu yaratish 30-Noy-2017 18:25 (17 kun o‘tgach)

Iqitibos

Profil ShX

Unofficial

Jins:
Yigit
Staj:
7 oy 22 kun
Xabarlar:
424

Qayerdan: Nukus

Taqiq:

Gr@nd, bu yerda hechkim yuklayotgani yo`q, lekin tarqatishda davom etmoqdasiz, Bu qanaqasiga, iloji bormi?

Mavzu yaratish 28-Mar-2018 22:35 (3 oy 28 kun o‘tgach)

Iqitibos

Profil ShX
Xabarlarni ko‘rsatish:    

Hozirgi vaqt: 18-Noy 16:58

Vaqtlar farqi: UTC + 5



Siz mavzu yaratishingiz mumkin emas
Siz xabarlarga javob qaytarishingiz mumkin emas
Siz o‘z xabarlaringizni tahrirlashingiz mumkin emas
Siz o‘z xabarlaringizni o‘chirishingiz mumkin emas
Siz so‘rovlarda ovoz berishingiz mumkin emas
Siz xabalarga fayllarni biriktirishingiz mumkin emas
Siz fayllarni ko‘chirishingiz mumkin emas