Nematillo ®

Jins:
Ko‘rsatilmagan
Staj:
1 yil
Xabarlar:
8
Taqiq:

Jeyson Born Jamlanmasi "Jeyson Bourne" filmi seriyasi (ingliz tilida Jeyson Bourne filmi) Robert Ludlumning romanlari asosida 2002 yildan 2016 yilgacha chiqarilgan besh qismdan iborat jangari filmlar turkumidir. Filmlar seriyasida Jeremy Renner asosiy rolni o'ynagan "Tug'ilgan Evolyutsiya" nomli spin-off turkumidagi tetralogiyadan ("Bourne Identity", "Bourne Supremacy", "Bourne Ultimatum" va "Jason Bourne") iborat.

Born muqoyasasi

Jeyson Born|The Bourne Identitiy Davlat: AQSH, Germaniya
Janr:Jangari, Triller
Chiqqan yili: 2002
Davomiyligi: 01:58:37-Tarjima: Professional (dublyaj qilingan) O`zbek tilida-Rejissiyor: Doug Liman-Rollarda: Matt Damon, Franka Potente, Kris Cooper, Clive Ouen, Brian Kox, Adewale Akinuoye-Agbaje, Gabriel Mann, Walton Goggins, Josh Hamilton.-Описание: Italiya baliq ovlash kemasi jamoasi O'rta er dengizi suvlarida inson tanasini topadi. Uning orqasida ikkita o'q jarohati va kruvaziyaga joylashtirilgan mikrofilm, shveytsariyalik bankning soni bilan belgilanadi. Chetga kelganida u kimligini eslay olmaydi va unga nima bo'ldi, biroq u bir nechta tillarda gapira oladi va boshqa noyob qobiliyatlarga ega.
Belgilangan bank hisobidan Tsyurixda pul olgan, u Jeyson Bornni bilib oladi. Ammo bu ismmi yoki yo'qmi? O'tmishini qayta tiklashga urinib, u Parijdagi manzilini topadi, biroq ayni paytda u qotil tomonidan kuzatib borilayotganini tushunadi. Tug'ilgan joyi Germaniyalik talaba Maryamni Parijga o'tishi va kimni o'ldirishni istayotganini tushunish uchun uni Parijga olib kelishni talab qiladi ...-Videoning sifati: BDRip
Формат видео: MKV-Video: MPEG4 Video (H264) 1056x448 23.976fps
Audio: AAC 44100Hz stereo (aac lc, 44100 Hz, stereo) [uzb]
Audio: Audio: Dolby AC3 48000Hz 6ch 384kbps (ac3, 48000 Hz, 5.1, 384 kb/s)[rus]
Audio: Dolby AC3 48000Hz 6ch 384kbps (ac3, 48000 Hz, 5.1, 384 kb/s) [eng]-

MediaInfo

General
Unique ID : 236057913670094450577980448492741911328 (0xB19719B765E273EE8F01C883CE16E320)
Complete name : F:\Movies\new\Jason.Bourne.Quadrilogy.[2002-2012].Uztracker.net\Идентификация Борна.2002.BDRip.mkv
Format : Matroska
Format version : Version 4 / Version 2
File size : 2.73 GiB
Duration : 1 h 58 min
Overall bit rate : 3 299 kb/s
Movie name : -=POTROKS=-
Encoded date : UTC 2015-01-25 11:56:15
Writing application : mkvmerge v7.3.0 ('Nouages') 32bit built on Oct 22 2014 18:44:01
Writing library : libebml v1.3.0 + libmatroska v1.4.1
Video
ID : 1
Format : AVC
Format/Info : Advanced Video Codec
Format profile : High@L4.2
Format settings, CABAC : Yes
Format settings, ReFrames : 7 frames
Codec ID : V_MPEG4/ISO/AVC
Duration : 1 h 58 min
Bit rate : 2 340 kb/s
Width : 1 056 pixels
Height : 448 pixels
Display aspect ratio : 2.35:1
Original display aspect ratio : 2.35:1
Frame rate mode : Constant
Frame rate : 23.976 (24000/1001) FPS
Color space : YUV
Chroma subsampling : 4:2:0
Bit depth : 8 bits
Scan type : Progressive
Bits/(Pixel*Frame) : 0.206
Stream size : 1.94 GiB (71%)
Title : Identifikaciya.Borna.2002.D.BDRip.x264.potroks
Writing library : x264 core 116 r2019M 9cc407d
Encoding settings : cabac=1 / ref=8 / deblock=1:-2:-2 / analyse=0x3:0x133 / me=umh / subme=9 / psy=1 / psy_rd=1.00:0.00 / mixed_ref=1 / me_range=42 / chroma_me=1 / trellis=1 / 8x8dct=1 / cqm=0 / deadzone=21,11 / fast_pskip=0 / chroma_qp_offset=-2 / threads=8 / sliced_threads=0 / nr=0 / decimate=1 / interlaced=0 / bluray_compat=0 / constrained_intra=0 / bframes=8 / b_pyramid=1 / b_adapt=2 / b_bias=0 / direct=3 / weightb=1 / open_gop=0 / weightp=2 / keyint=250 / keyint_min=23 / scenecut=45 / intra_refresh=0 / rc_lookahead=100 / rc=2pass / mbtree=1 / bitrate=2340 / ratetol=1.0 / qcomp=0.60 / qpmin=10 / qpmax=51 / qpstep=4 / cplxblur=20.0 / qblur=0.7 / ip_ratio=1.37 / aq=1:1.20
Language : English
Default : Yes
Forced : No
Audio #1
ID : 2
Format : AC-3
Format/Info : Audio Coding 3
Mode extension : CM (complete main)
Format settings, Endianness : Big
Codec ID : A_AC3
Duration : 1 h 58 min
Bit rate mode : Constant
Bit rate : 384 kb/s
Channel(s) : 6 channels
Channel positions : Front: L C R, Side: L R, LFE
Sampling rate : 48.0 kHz
Frame rate : 31.250 FPS (1536 spf)
Compression mode : Lossy
Stream size : 326 MiB (12%)
Title : Professional (to'liq dublyaj) (rus tilida) otabek12
Language : Russian
Default : Yes
Forced : Yes
Audio #2
ID : 3
Format : AC-3
Format/Info : Audio Coding 3
Mode extension : CM (complete main)
Format settings, Endianness : Big
Codec ID : A_AC3
Duration : 1 h 58 min
Bit rate mode : Constant
Bit rate : 384 kb/s
Channel(s) : 6 channels
Channel positions : Front: L C R, Side: L R, LFE
Sampling rate : 48.0 kHz
Frame rate : 31.250 FPS (1536 spf)
Compression mode : Lossy
Stream size : 326 MiB (12%)
Title : Professional (orginal) (ingiliz tilida) otabek12
Language : English
Default : No
Forced : No
Audio #3
ID : 8
Format : AAC
Format/Info : Advanced Audio Codec
Format profile : LC
Codec ID : A_AAC
Duration : 1 h 58 min
Bit rate : 192 kb/s
Channel(s) : 2 channels
Channel positions : Front: L R
Sampling rate : 44.1 kHz
Frame rate : 43.066 FPS (1024 spf)
Compression mode : Lossy
Stream size : 161 MiB (6%)
Title : Professional (to'liq dublyaj) (o'zbek tilida) otabek12
Language : Uzbek
Default : No
Forced : No
Text #1
ID : 4
Format : UTF-8
Codec ID : S_TEXT/UTF8
Codec ID/Info : UTF-8 Plain Text
Duration : 1 h 50 min
Bit rate : 42 b/s
Count of elements : 1130
Stream size : 34.0 KiB (0%)
Language : English
Default : No
Forced : No
Text #2
ID : 5
Format : UTF-8
Codec ID : S_TEXT/UTF8
Codec ID/Info : UTF-8 Plain Text
Duration : 1 h 56 min
Bit rate : 142 b/s
Count of elements : 1650
Stream size : 122 KiB (0%)
Title : Com
Language : Russian
Default : No
Forced : No
Text #3
ID : 6
Format : UTF-8
Codec ID : S_TEXT/UTF8
Codec ID/Info : UTF-8 Plain Text
Duration : 1 h 14 min
Bit rate : 5 b/s
Count of elements : 79
Stream size : 2.93 KiB (0%)
Title : Forced
Language : Russian
Default : Yes
Forced : Yes
Text #4
ID : 7
Format : UTF-8
Codec ID : S_TEXT/UTF8
Codec ID/Info : UTF-8 Plain Text
Duration : 1 h 50 min
Bit rate : 67 b/s
Count of elements : 986
Stream size : 54.8 KiB (0%)
Language : Russian
Default : No
Forced : No

Jeyson Born Ustunligi

Jeyson Born Ustunligi | The Bourne Supremacy Davlat: AQSH, Germaniya
Janr:Jangari, Triller
Chiqqan yili: 2004
Davomiyligi: 01:48:31-Tarjima: Professional (dublyaj qilingan) O`zbek tilida-Rejissiyor: Paul Greengrass-Rollarda: Matt Damon, Franka Potente, Brian Kox, Julian Styles, Karl Urban, Gabriel Mann, Joan Allen, Marton Chokash, Tom Gallop, Jon Bedford Lloyd-Описание:Markaziy razvedka boshqarmasi super-agenti Jeyson Born yana bir marta davlatga yuklatilgan davlat vazifasi vazifasini bajarishdan tashqari, o'zidan va unga befarq bo'lmagan boshqa kishilarni qutqarish uchun majburiy va majburiydir.
Missiyani amalga oshirish jarayonida taqdir Bourneni Rossiyaga olib keladi, u erda u mamlakat uchun odatiy bo'lib turadi, biroq g'arb odamining g'ayrioddiyligi ajablantirmoqda.-Videoning sifati: BDRip
Формат видео: MKV-Video: MPEG4 Video (H264) 1056x448 23.976fps x264
Audio: AAC 44100Hz stereo (aac lc, 44100 Hz, stereo) [uzb]
Audio: Dolby AC3 48000Hz 6ch 384kbps (ac3, 48000 Hz, 5.1, 384 kb/s) [eng]
Audio: Dolby AC3 48000Hz 6ch 384kbps (ac3, 48000 Hz, 5.1, 384 kb/s) [rus]-

MediaInfo

General
Unique ID : 187989369492756937696617358675170686658 (0x8D6D6F830A2C231FAFDF85E2380DF6C2)
Complete name : F:\Movies\new\Jason.Bourne.Quadrilogy.[2002-2012].Uztracker.net\Превосходство Борна.2004.BDRip.mkv
Format : Matroska
Format version : Version 4 / Version 2
File size : 2.72 GiB
Duration : 1 h 48 min
Overall bit rate : 3 589 kb/s
Movie name : -=POTROKS=-
Encoded date : UTC 2015-01-25 17:51:35
Writing application : mkvmerge v7.3.0 ('Nouages') 32bit built on Oct 22 2014 18:44:01
Writing library : libebml v1.3.0 + libmatroska v1.4.1
Video
ID : 1
Format : AVC
Format/Info : Advanced Video Codec
Format profile : High@L4.1
Format settings, CABAC : Yes
Format settings, ReFrames : 9 frames
Codec ID : V_MPEG4/ISO/AVC
Duration : 1 h 48 min
Bit rate : 2 630 kb/s
Width : 1 056 pixels
Height : 448 pixels
Display aspect ratio : 2.35:1
Frame rate mode : Constant
Frame rate : 23.976 (24000/1001) FPS
Color space : YUV
Chroma subsampling : 4:2:0
Bit depth : 8 bits
Scan type : Progressive
Bits/(Pixel*Frame) : 0.232
Stream size : 1.99 GiB (73%)
Title : Prevoshodstvo.Borna.2004.D.BDRip.x264.potroks
Writing library : x264 core 116 r2019M 9cc407d
Encoding settings : cabac=1 / ref=10 / deblock=1:-2:-1 / analyse=0x3:0x133 / me=umh / subme=9 / psy=1 / psy_rd=1.00:0.00 / mixed_ref=1 / me_range=32 / chroma_me=1 / trellis=1 / 8x8dct=1 / cqm=0 / deadzone=21,11 / fast_pskip=0 / chroma_qp_offset=-2 / threads=8 / sliced_threads=0 / nr=0 / decimate=1 / interlaced=0 / bluray_compat=0 / constrained_intra=0 / bframes=8 / b_pyramid=1 / b_adapt=2 / b_bias=0 / direct=3 / weightb=1 / open_gop=0 / weightp=2 / keyint=250 / keyint_min=23 / scenecut=45 / intra_refresh=0 / rc_lookahead=80 / rc=2pass / mbtree=1 / bitrate=2630 / ratetol=1.0 / qcomp=0.60 / qpmin=10 / qpmax=51 / qpstep=4 / cplxblur=20.0 / qblur=0.7 / ip_ratio=1.37 / aq=1:1.20
Language : English
Default : Yes
Forced : No
Audio #1
ID : 2
Format : AC-3
Format/Info : Audio Coding 3
Mode extension : CM (complete main)
Format settings, Endianness : Big
Codec ID : A_AC3
Duration : 1 h 48 min
Bit rate mode : Constant
Bit rate : 384 kb/s
Channel(s) : 6 channels
Channel positions : Front: L C R, Side: L R, LFE
Sampling rate : 48.0 kHz
Frame rate : 31.250 FPS (1536 spf)
Compression mode : Lossy
Stream size : 298 MiB (11%)
Title : Professional (to'liq dublyaj) (rus tilida) otabek12
Language : Russian
Default : Yes
Forced : Yes
Audio #2
ID : 3
Format : AC-3
Format/Info : Audio Coding 3
Mode extension : CM (complete main)
Format settings, Endianness : Big
Codec ID : A_AC3
Duration : 1 h 48 min
Bit rate mode : Constant
Bit rate : 384 kb/s
Channel(s) : 6 channels
Channel positions : Front: L C R, Side: L R, LFE
Sampling rate : 48.0 kHz
Frame rate : 31.250 FPS (1536 spf)
Compression mode : Lossy
Stream size : 298 MiB (11%)
Title : Professional (orginal) (ingiliz tilida) otabek12
Language : English
Default : No
Forced : No
Audio #3
ID : 8
Format : AAC
Format/Info : Advanced Audio Codec
Format profile : LC
Codec ID : A_AAC
Duration : 1 h 48 min
Bit rate : 192 kb/s
Channel(s) : 2 channels
Channel positions : Front: L R
Sampling rate : 44.1 kHz
Frame rate : 43.066 FPS (1024 spf)
Compression mode : Lossy
Stream size : 147 MiB (5%)
Title : Professional (to'liq dublyaj) (o'zbek tilida) otabek12
Language : Uzbek
Default : No
Forced : No
Text #1
ID : 4
Format : UTF-8
Codec ID : S_TEXT/UTF8
Codec ID/Info : UTF-8 Plain Text
Duration : 1 h 40 min
Bit rate : 38 b/s
Count of elements : 948
Stream size : 28.8 KiB (0%)
Language : English
Default : No
Forced : No
Text #2
ID : 5
Format : UTF-8
Codec ID : S_TEXT/UTF8
Codec ID/Info : UTF-8 Plain Text
Duration : 1 h 42 min
Bit rate : 88 b/s
Count of elements : 911
Stream size : 66.7 KiB (0%)
Title : Com.
Language : Russian
Default : No
Forced : No
Text #3
ID : 6
Format : UTF-8
Codec ID : S_TEXT/UTF8
Codec ID/Info : UTF-8 Plain Text
Duration : 1 h 38 min
Bit rate : 2 b/s
Count of elements : 44
Stream size : 2.08 KiB (0%)
Title : Forced
Language : Russian
Default : Yes
Forced : Yes
Text #4
ID : 7
Format : UTF-8
Codec ID : S_TEXT/UTF8
Codec ID/Info : UTF-8 Plain Text
Duration : 1 h 41 min
Bit rate : 52 b/s
Count of elements : 636
Stream size : 38.7 KiB (0%)
Language : Russian
Default : No
Forced : No
[align]

Born Sharti

Born Sharti | The Bourne Ultimatum Davlat: AQSH, Germaniya
Janr:Jangari, Triller
Chiqqan yili: 2007
Davomiyligi: 01:55:14-Tarjima: Professional (dublyaj qilingan) O`zbek tilida-Rejissiyor: Paul Greengrass-Rollarda: Matt Damon, Julia Stiles, Devid Strathairn, Scott Glenn, Paddy Considine, Edgar Ramirez, Albert Finney, Joan Allen-Описание:U bir narsani xohladi - yo'qoldi. Buning o'rniga, Borna uni nima qilganini odamlar tomonidan ovlanadi. U xotirasini va sevgan odamini yo'qotdi. Lekin u hatto yangi avlod qotillari tomonidan ham to'xtatilishi mumkin emas. Uning bitta maqsadi bor: boshiga qaytib, kim ekanligini bilib oling, Jeyson Bourne.
U Moskvadan Parijga, Madrid va London orqali Tangier va Nyu-Yorkka o'tadi, o'tmishdagi eng oxirgi jumboqlarni topishga urinadi, hukumat agentlari va Interpol butun rasmini oxirigacha tiklashga xalaqit bermoqchi.-Videoning sifati: BDRip
Формат видео: MKV-Video: MPEG4 Video (H264) 1056x440 23.976fps BDRip.x264.potroks
Audio: AAC 44100Hz stereo(aac lc, 44100 Hz, stereo)][uzb]
Audio: Dolby AC3 48000Hz 6ch 384kbps (ac3, 48000 Hz, 5.1, 384 kb/s)[rus]
Audio: Dolby AC3 48000Hz 6ch 384kbps (ac3, 48000 Hz, 5.1, 384 kb/s)[eng]-

MediaInfo

General
Unique ID : 237134662969987066862244309802845634967 (0xB266798E3C8DABBFA32697ED10BA8197)
Complete name : F:\Movies\new\Jason.Bourne.Quadrilogy.[2002-2012].Uztracker.net\Ультиматум Борна.2007.BDRip.mkv
Format : Matroska
Format version : Version 4 / Version 2
File size : 2.73 GiB
Duration : 1 h 55 min
Overall bit rate : 3 390 kb/s
Movie name : -=POTROKS=-
Encoded date : UTC 2015-01-26 11:23:28
Writing application : mkvmerge v7.3.0 ('Nouages') 32bit built on Oct 22 2014 18:44:01
Writing library : libebml v1.3.0 + libmatroska v1.4.1
Video
ID : 1
Format : AVC
Format/Info : Advanced Video Codec
Format profile : High@L4.1
Format settings, CABAC : Yes
Format settings, ReFrames : 11 frames
Codec ID : V_MPEG4/ISO/AVC
Duration : 1 h 55 min
Bit rate : 2 432 kb/s
Width : 1 056 pixels
Height : 440 pixels
Display aspect ratio : 2.40:1
Frame rate mode : Constant
Frame rate : 23.976 (24000/1001) FPS
Color space : YUV
Chroma subsampling : 4:2:0
Bit depth : 8 bits
Scan type : Progressive
Bits/(Pixel*Frame) : 0.218
Stream size : 1.96 GiB (72%)
Title : Ultimatum.Borna.2007.D.BDRip.x264.potroks
Writing library : x264 core 116 r2019M 9cc407d
Encoding settings : cabac=1 / ref=12 / deblock=1:-2:-1 / analyse=0x3:0x133 / me=umh / subme=9 / psy=1 / psy_rd=1.00:0.00 / mixed_ref=1 / me_range=42 / chroma_me=1 / trellis=1 / 8x8dct=1 / cqm=0 / deadzone=21,11 / fast_pskip=0 / chroma_qp_offset=-2 / threads=8 / sliced_threads=0 / nr=0 / decimate=1 / interlaced=0 / bluray_compat=0 / constrained_intra=0 / bframes=8 / b_pyramid=1 / b_adapt=2 / b_bias=0 / direct=3 / weightb=1 / open_gop=0 / weightp=2 / keyint=250 / keyint_min=23 / scenecut=45 / intra_refresh=0 / rc_lookahead=80 / rc=2pass / mbtree=1 / bitrate=2432 / ratetol=1.0 / qcomp=0.60 / qpmin=10 / qpmax=51 / qpstep=4 / cplxblur=20.0 / qblur=0.7 / ip_ratio=1.37 / aq=1:1.20
Language : English
Default : Yes
Forced : No
Audio #1
ID : 2
Format : AC-3
Format/Info : Audio Coding 3
Mode extension : CM (complete main)
Format settings, Endianness : Big
Codec ID : A_AC3
Duration : 1 h 55 min
Bit rate mode : Constant
Bit rate : 384 kb/s
Channel(s) : 6 channels
Channel positions : Front: L C R, Side: L R, LFE
Sampling rate : 48.0 kHz
Frame rate : 31.250 FPS (1536 spf)
Compression mode : Lossy
Stream size : 316 MiB (11%)
Title : Professional (to'liq dublyaj) (rus tilida) otabek12
Language : Russian
Default : Yes
Forced : Yes
Audio #2
ID : 3
Format : AC-3
Format/Info : Audio Coding 3
Mode extension : CM (complete main)
Format settings, Endianness : Big
Codec ID : A_AC3
Duration : 1 h 55 min
Bit rate mode : Constant
Bit rate : 384 kb/s
Channel(s) : 6 channels
Channel positions : Front: L C R, Side: L R, LFE
Sampling rate : 48.0 kHz
Frame rate : 31.250 FPS (1536 spf)
Compression mode : Lossy
Stream size : 316 MiB (11%)
Title : Professional (Orginal) (ingiliz tilida) otabek12
Language : English
Default : No
Forced : No
Audio #3
ID : 6
Format : AAC
Format/Info : Advanced Audio Codec
Format profile : LC
Codec ID : A_AAC
Duration : 1 h 55 min
Bit rate : 192 kb/s
Channel(s) : 2 channels
Channel positions : Front: L R
Sampling rate : 44.1 kHz
Frame rate : 43.066 FPS (1024 spf)
Compression mode : Lossy
Stream size : 156 MiB (6%)
Title : Professional (to'liq dublyaj) (o'zbek tilida) otabek12
Language : Uzbek
Default : No
Forced : No
Text #1
ID : 4
Format : UTF-8
Codec ID : S_TEXT/UTF8
Codec ID/Info : UTF-8 Plain Text
Duration : 1 h 45 min
Bit rate : 43 b/s
Count of elements : 1054
Stream size : 33.6 KiB (0%)
Language : English
Default : No
Forced : No
Text #2
ID : 5
Format : UTF-8
Codec ID : S_TEXT/UTF8
Codec ID/Info : UTF-8 Plain Text
Duration : 1 h 43 min
Bit rate : 65 b/s
Count of elements : 781
Stream size : 49.3 KiB (0%)
Language : Russian
Default : No
Forced : No

Born Evolyutsiyasi

Born Evolyutsiyasi | The Bourne Legacy Davlat: AQSH, Germaniya
Janr:Jangari, Triller
Chiqqan yili: 2012
Davomiyligi: 02:15:02-Tarjima: Professional (dublyaj qilingan) O`zbek tilida-Rejissiyor: Tony Gilroy-Rollarda: Jeremy Renner, Rachel Weiss, Edvard Norton, Joan Allen, Albert Finney, Scott Glenn, Stacy Kich, Donna Murphy, Maykl Chernus, Cory Stall-Описание:Jeyson Bourne, sobiq CIA qotilining hikoyasi tugamadi. Axir, u juda ko'p narsani biladi va bunday odamlarning ko'p yillar mobaynida faol ishdan ketishidan keyin ham yolg'iz qolmaydi. Biroq, bu safar biz faqat maxfiy loyihalar haqida gapiramiz, faqat bilvosita unga aloqador. Bu safar asosiy xarakter Aaron Xros ismli boshqa maxfiy agent bo'ladi. Bundan tashqari, u o'tgan ishlaridagi yo'llarni yashirishga harakat qilayotganlardan yashirish kerak. Va hatto uning ajoyib qobiliyatlariga qaramay, juda qiyin bo'ladi ...-Videoning sifati: BDRip
Формат видео: MKV-Video: MPEG4 Video (H264) 960x400 23.976fps h264
Audio: AAC 44100Hz stereo (aac lc, 44100 Hz, stereo)] [uzb]
Audio: Dolby AC3 48000Hz 6ch 384kbps (ac3, 48000 Hz, 5.1, 384 kb/s)[rus]-

MediaInfo

General
Unique ID : 179605746607604788473889426896967833359 (0x871ECEFDA0DA66B69C319490E7B6170F)
Complete name : F:\Movies\new\Jason.Bourne.Quadrilogy.[2002-2012].Uztracker.net\Эволюция Борна.2012.BDRip.mkv
Format : Matroska
Format version : Version 4 / Version 2
File size : 2.31 GiB
Duration : 2 h 15 min
Overall bit rate : 2 448 kb/s
Movie name : -=POTROKS=-
Encoded date : UTC 2015-01-24 14:57:51
Writing application : mkvmerge v7.3.0 ('Nouages') 32bit built on Oct 22 2014 18:44:01
Writing library : libebml v1.3.0 + libmatroska v1.4.1
Video
ID : 1
Format : AVC
Format/Info : Advanced Video Codec
Format profile : High@L4.1
Format settings, CABAC : Yes
Format settings, ReFrames : 10 frames
Codec ID : V_MPEG4/ISO/AVC
Duration : 2 h 15 min
Bit rate : 1 874 kb/s
Width : 960 pixels
Height : 400 pixels
Display aspect ratio : 2.40:1
Frame rate mode : Constant
Frame rate : 23.976 FPS
Color space : YUV
Chroma subsampling : 4:2:0
Bit depth : 8 bits
Scan type : Progressive
Bits/(Pixel*Frame) : 0.204
Stream size : 1.77 GiB (76%)
Title : Эволюция Борна
Writing library : x264 core 125 r2208 d9d2288
Encoding settings : cabac=1 / ref=10 / deblock=1:-3:-2 / analyse=0x3:0x133 / me=umh / subme=9 / psy=1 / psy_rd=1.05:0.00 / mixed_ref=1 / me_range=48 / chroma_me=0 / trellis=2 / 8x8dct=1 / cqm=0 / deadzone=21,11 / fast_pskip=1 / chroma_qp_offset=-2 / threads=6 / lookahead_threads=1 / sliced_threads=0 / nr=0 / decimate=1 / interlaced=0 / bluray_compat=0 / constrained_intra=0 / bframes=11 / b_pyramid=2 / b_adapt=2 / b_bias=0 / direct=3 / weightb=1 / open_gop=0 / weightp=2 / keyint=240 / keyint_min=23 / scenecut=40 / intra_refresh=0 / rc_lookahead=240 / rc=2pass / mbtree=1 / bitrate=1874 / ratetol=1.0 / qcomp=0.75 / qpmin=0 / qpmax=65 / qpstep=3 / cplxblur=20.0 / qblur=0.5 / vbv_maxrate=20000 / vbv_bufsize=20000 / nal_hrd=none / ip_ratio=1.35 / aq=1:0.80
Language : English
Default : Yes
Forced : No
Audio #1
ID : 2
Format : AC-3
Format/Info : Audio Coding 3
Mode extension : CM (complete main)
Format settings, Endianness : Big
Codec ID : A_AC3
Duration : 2 h 14 min
Bit rate mode : Constant
Bit rate : 384 kb/s
Channel(s) : 6 channels
Channel positions : Front: L C R, Side: L R, LFE
Sampling rate : 48.0 kHz
Frame rate : 31.250 FPS (1536 spf)
Compression mode : Lossy
Stream size : 371 MiB (16%)
Title : Professional (to'liq dublyaj) (rus tilida) otabek12
Language : Russian
Default : Yes
Forced : No
Audio #2
ID : 5
Format : AAC
Format/Info : Advanced Audio Codec
Format profile : LC
Codec ID : A_AAC
Duration : 2 h 15 min
Bit rate : 192 kb/s
Channel(s) : 2 channels
Channel positions : Front: L R
Sampling rate : 44.1 kHz
Frame rate : 43.066 FPS (1024 spf)
Compression mode : Lossy
Stream size : 183 MiB (8%)
Title : Professional (to'liq dublyaj) (o'zbek tilida) otabek12
Language : Uzbek
Default : No
Forced : No
Text #1
ID : 3
Format : UTF-8
Codec ID : S_TEXT/UTF8
Codec ID/Info : UTF-8 Plain Text
Duration : 2 h 2 min
Bit rate : 53 b/s
Count of elements : 1451
Stream size : 48.5 KiB (0%)
Language : English
Default : No
Forced : No
Text #2
ID : 4
Format : UTF-8
Codec ID : S_TEXT/UTF8
Codec ID/Info : UTF-8 Plain Text
Duration : 2 h 2 min
Bit rate : 84 b/s
Count of elements : 1412
Stream size : 75.8 KiB (0%)
Title : Goblin
Language : Russian
Default : No
Forced : No
Menu
00:00:00.000 : en:00:00:00.000
00:08:43.690 : en:00:08:43.690
00:14:26.616 : en:00:14:26.616
00:19:57.488 : en:00:19:57.488
00:27:53.297 : en:00:27:53.297
00:34:18.265 : en:00:34:18.265
00:42:52.403 : en:00:42:52.403
00:47:57.374 : en:00:47:57.374
00:53:56.066 : en:00:53:56.066
01:00:29.167 : en:01:00:29.167
01:07:36.636 : en:01:07:36.636
01:14:36.972 : en:01:14:36.972
01:22:39.204 : en:01:22:39.204
01:28:37.687 : en:01:28:37.687
01:36:39.043 : en:01:36:39.043
01:41:05.685 : en:01:41:05.685
01:45:07.968 : en:01:45:07.968
01:52:15.520 : en:01:52:15.520
02:00:07.283 : en:02:00:07.283
02:05:06.416 : en:02:05:06.416

Jeyson Born

Jeyson Born | The Bourne Davlat: AQSH, Germaniya
Janr:Jangari, Triller
Chiqqan yili: 2016
Davomiyligi: 02:03:12-Tarjima: Professional (dublyaj qilingan) O`zbek tilida-Rejissiyor: Pol Gringrass-Rollarda: Met Deymon, Alisiya Vikander, Tommi Li Jons, Vensan Kassel, Juliya Staylz, Riz Ahmed, Ato Essonda, Skot SheperdBill Kemp, Vinses Kifer-Описание:Dunyo falokat yoqasida, va qaytib kelish vaqti keldi. Napoli, Myunxen, Nyu-York - uning nomi har joyda ma'lum. Elita super-agenti, hatto eng yaxshi Las-Vegas da, o'yin uning qoidalariga amal qiladi. U Jeyson Bourne.-Videoning sifati: BDRip
Формат видео: MKV-Video: MPEG4 Video (H264) 1280x536 23.976fps 4 840 Kbps
Audio: MP3 48000Hz / 2ch / 128kbps Uzb
Audio: Dolby AC3 48000Hz / 6ch / 384 kbps Rus
Audio: Dolby AC3 48000Hz / 6ch / 448 kbps Eng-

MediaInfo

General
Unique ID : 191294930483489964195433114254279631718 (0x8FEA104068061339B04A2F4C2E2AE366)
Format : Matroska
Format version : Version 4 / Version 2
File size : 5.96 GiB
Duration : 2h 3mn
Overall bit rate : 6 926 Kbps
Movie name : Xusan_Gr@nd
Encoded date : UTC 2017-01-02 07:39:54
Writing application : mkvmerge v6.8.0 ('Theme for Great Cities') 64bit built on Mar 2 2014 21:34:26
Writing library : libebml v1.3.0 + libmatroska v1.4.1
Video
ID : 1
Format : AVC
Format/Info : Advanced Video Codec
Format profile : High@L4.1
Format settings, CABAC : Yes
Format settings, ReFrames : 5 frames
Codec ID : V_MPEG4/ISO/AVC
Duration : 2h 3mn
Bit rate : 4 840 Kbps
Width : 1 280 pixels
Height : 536 pixels
Display aspect ratio : 2.40:1
Frame rate : 23.976 fps
Color space : YUV
Chroma subsampling : 4:2:0
Bit depth : 8 bits
Scan type : Progressive
Bits/(Pixel*Frame) : 0.294
Stream size : 4.05 GiB (68%)
Writing library : x264 core 148 r2705 3f5ed56
Encoding settings : cabac=1 / ref=5 / deblock=1:0:0 / analyse=0x3:0x133 / me=umh / subme=7 / psy=1 / psy_rd=1.00:0.00 / mixed_ref=1 / me_range=16 / chroma_me=1 / trellis=1 / 8x8dct=1 / cqm=0 / deadzone=21,11 / fast_pskip=0 / chroma_qp_offset=-2 / threads=12 / lookahead_threads=2 / sliced_threads=0 / nr=0 / decimate=1 / interlaced=0 / bluray_compat=0 / constrained_intra=0 / bframes=3 / b_pyramid=2 / b_adapt=1 / b_bias=0 / direct=1 / weightb=1 / open_gop=0 / weightp=2 / keyint=250 / keyint_min=23 / scenecut=40 / intra_refresh=0 / rc_lookahead=40 / rc=2pass / mbtree=1 / bitrate=4840 / ratetol=1.0 / qcomp=0.60 / qpmin=0 / qpmax=69 / qpstep=4 / cplxblur=20.0 / qblur=0.5 / ip_ratio=1.40 / aq=1:1.00
Language : English
Default : Yes
Forced : No
Audio #1
ID : 2
Format : AC-3
Format/Info : Audio Coding 3
Mode extension : CM (complete main)
Format settings, Endianness : Big
Codec ID : A_AC3
Duration : 2h 3mn
Bit rate mode : Constant
Bit rate : 448 Kbps
Channel(s) : 6 channels
Channel positions : Front: L C R, Side: L R, LFE
Sampling rate : 48.0 KHz
Bit depth : 16 bits
Compression mode : Lossy
Stream size : 395 MiB (6%)
Language : Russian
Default : Yes
Forced : No
Audio #2
ID : 3
Format : DTS
Format/Info : Digital Theater Systems
Codec ID : A_DTS
Duration : 2h 3mn
Bit rate mode : Constant
Bit rate : 1 510 Kbps
Channel(s) : 6 channels
Channel positions : Front: L C R, Side: L R, LFE
Sampling rate : 48.0 KHz
Bit depth : 24 bits
Compression mode : Lossy
Stream size : 1.30 GiB (22%)
Language : English
Default : No
Forced : No
Audio #3
ID : 4
Format : MPEG Audio
Format version : Version 1
Format profile : Layer 3
Mode : Joint stereo
Mode extension : MS Stereo
Codec ID : A_MPEG/L3
Codec ID/Hint : MP3
Duration : 2h 3mn
Bit rate mode : Constant
Bit rate : 128 Kbps
Channel(s) : 2 channels
Sampling rate : 44.1 KHz
Compression mode : Lossy
Stream size : 113 MiB (2%)
Title : Xusan_Gr@nd
Writing library : LAME3.98.2
Language : Uzbek
Default : No
Forced : No
Profil ShX

MRLG

Jins:
Yigit
Staj:
1 yil 1 oy
Xabarlar:
460
Taqiq:

1. Film posterlari 600 pikseldan oshib ketmasin.
2. Film skrinshotlarini mana bu qo'llanmada yozilganidek qilib saqlang va hozirgi skrinshotlarga almashtiring.

Mavzu yaratish 08-Dek-2017 21:39 (22 soat o‘tgach)

Iqitibos

Profil ShX
Xabarlarni ko‘rsatish:    

Hozirgi vaqt: 19-Sen 05:49

Vaqtlar farqi: UTC + 5



Siz mavzu yaratishingiz mumkin emas
Siz xabarlarga javob qaytarishingiz mumkin emas
Siz o‘z xabarlaringizni tahrirlashingiz mumkin emas
Siz o‘z xabarlaringizni o‘chirishingiz mumkin emas
Siz so‘rovlarda ovoz berishingiz mumkin emas
Siz xabalarga fayllarni biriktirishingiz mumkin emas
Siz fayllarni ko‘chirishingiz mumkin emas