Tarqatmalar statistikasi
Yoʻq
 
     
 
 

Frozen ®

Jins:
Yigit
Staj:
11 oy 4 kun
Xabarlar:
58

Qayerdan: Toshkent, Navoi

Taqiq:

-Jeyson Bourn / The Bourne Identity-

Davlat: AQSH, Germaniya, Chexiya
Janr: boevik, triller, detektiv
Chiqqan yili: 2002
Davomiyligi: 01:58:37--Tarjima : Professional (O`zbek tilida) (_-KIRA-_)
Subtitr: английские
Haqiqi ovozi: английский--Rejissiyor: Dag Layman
Rollarda: Matt Damon (Jason Born), Frank Potente (Marie), Chris Cooper (Conklin), Clive Owen (professor), Brian Cox (Ward Abbott), Adewale Akinoye-Agbage (Wombosi), Gabriel Mann (Zorn), Julia Styles (Nicolette ), Tim Dutton (Eamon), Walton Goggins (Research Tech), Josh Hamilton (Research Tech), Orso Maria Guerrini (Giancarlo)
Tavsif: Команда итальянского рыболовецкого судна находит в водах Средиземного моря тело мужчины. У него два пулевых ранения в спине и имплантированный в бедро микрофильм, помеченный номером швейцарского банка. Когда незнакомец приходит в себя, оказывается, что он не помнит кто он, и что с ним случилось, однако он может говорить на нескольких языках и обладает другими необычными способностями.
Получив в Цюрихе деньги с указанного банковского счета, он узнает свое имя - Джейсон Борн. Но настоящее это его имя или нет? Пытаясь восстановить свое прошлое, он находит свой адрес в Париже, но вместе с этим понимает, что отслеживается убийцей. Борн уговаривает немецкую студентку Мэри отвезти его в Париж, чтобы выяснить все о своем прошлом и понять, кто хочет его убить...
Качество видео: BDRip
Формат видео: MKV
Video: AVC, 1024x432 (2.35:1), 4000 kbps, 59,940 fps, 0,151 bpp
Audio: (O`zbek tilida) Dolby / AC3 / 48000 -> 48000/ 6-2

Audio: русский / AC3 / 5.1 / 48 kHz / 640 kbps / 16 bit

MediaInfo

E:\kino\The Jeyson Bourne\The Jeyson Bourne Identity 2002.720p [_-KIRA-_].mkv
General
Unique ID : 241922827321921698215924722484108414123 (0xB600A448E07387B09A31C7ADA3554CAB)
Complete name : E:\kino\The Jeyson Bourne\The Jeyson Bourne Identity 2002.720p [_-KIRA-_].mkv
Format : Matroska
Format version : Version 4 / Version 2
File size : 4.48 GiB
Duration : 1h 58mn
Overall bit rate : 5 417 Kbps
Encoded date : UTC 2014-05-19 16:28:22
Writing application : mkvmerge v6.2.0 ('Promised Land') built on Apr 28 2013 12:22:01
Writing library : libebml v1.3.0 + libmatroska v1.4.0
Video #1
ID : 1
Format : AVC
Format/Info : Advanced Video Codec
Format profile : High@L5.1
Format settings, CABAC : Yes
Format settings, ReFrames : 8 frames
Format settings, GOP : N=1
Codec ID : V_MPEG4/ISO/AVC
Duration : 1h 58mn
Bit rate : 4 648 Kbps
Width : 1 280 pixels
Height : 544 pixels
Display aspect ratio : 2.35:1
Frame rate mode : Constant
Frame rate : 23.976 fps
Color space : YUV
Chroma subsampling : 4:2:0
Bit depth : 8 bits
Scan type : Progressive
Bits/(Pixel*Frame) : 0.278
Stream size : 3.75 GiB (84%)
Writing library : x264 core 55 svn-658
Encoding settings : cabac=1 / ref=5 / deblock=1:-1:-1 / analyse=0x3:0x133 / me=umh / subme=7 / brdo=0 / mixed_ref=1 / me_range=16 / chroma_me=1 / trellis=1 / 8x8dct=1 / cqm=2 / deadzone=21,11 / chroma_qp_offset=0 / threads=3 / nr=0 / decimate=1 / mbaff=0 / bframes=3 / b_pyramid=1 / b_adapt=1 / b_bias=0 / direct=1 / wpredb=1 / bime=1 / keyint=240 / keyint_min=24 / scenecut=40(pre) / rc=2pass / bitrate=4648 / ratetol=1.0 / rceq='blurCplx^(1-qComp)' / qcomp=0.60 / qpmin=10 / qpmax=51 / qpstep=4 / cplxblur=20.0 / qblur=0.5 / ip_ratio=1.40 / pb_ratio=1.30
Language : English
Default : Yes
Forced : No
Audio #2
ID : 2
Format : AC-3
Format/Info : Audio Coding 3
Mode extension : CM (complete main)
Format settings, Endianness : Big
Codec ID : A_AC3
Duration : 1h 58mn
Bit rate mode : Constant
Bit rate : 448 Kbps
Channel(s) : 6 channels
Channel positions : Front: L C R, Side: L R, LFE
Sampling rate : 48.0 KHz
Bit depth : 16 bits
Compression mode : Lossy
Stream size : 379 MiB (8%)
Title : Rus tilida, dublyaj
Language : Russian
Default : Yes
Forced : No
Audio #3
ID : 3
Format : MPEG Audio
Format version : Version 1
Format profile : Layer 3
Codec ID : A_MPEG/L3
Codec ID/Hint : MP3
Duration : 1h 58mn
Bit rate mode : Constant
Bit rate : 320 Kbps
Channel(s) : 2 channels
Sampling rate : 48.0 KHz
Compression mode : Lossy
Stream size : 271 MiB (6%)
Title : O`zbek tilida _-KIRA-_
Writing library : LAMELAME_MAJOR_VERSI
Language : Uzbek
Default : No
Forced : No
Text #4
ID : 4
Format : SSA
Codec ID : S_TEXT/SSA
Codec ID/Info : Sub Station Alpha
Compression mode : Lossless
Title : _-KIRA-_
Language : Uzbek
Default : Yes
Forced : No

Skrinshotlar

Profil ShX
Xabarlarni ko‘rsatish:    

Hozirgi vaqt: 23-Iyul 03:23

Vaqtlar farqi: UTC + 5



Siz mavzu yaratishingiz mumkin emas
Siz xabarlarga javob qaytarishingiz mumkin emas
Siz o‘z xabarlaringizni tahrirlashingiz mumkin emas
Siz o‘z xabarlaringizni o‘chirishingiz mumkin emas
Siz so‘rovlarda ovoz berishingiz mumkin emas
Siz xabalarga fayllarni biriktirishingiz mumkin emas
Siz fayllarni ko‘chirishingiz mumkin emas