˂
˃
Tarqatmalar statistikasi
Yoʻq
 
     
 
 

Javohir123 ®

Jins:
Yigit
Staj:
1 yil 1 oy
Xabarlar:
48
Taqiq:

Josus Do'stlar | Полтора шпиона | Central Intelligence Davlat: AQSH
Janr: Kulguli,Jangari
Chiqqan yili: 2016
Davomiyligi: 01:47:32
-
Tarjima: Professional (dublyaj qilingan) O'zbek Tilida
Rejissiyor: Rawson Marshall Thurber
-Rollarda: Dwayne Johnson, Aaron Paul, Kevin HART, Emi Ryan, Ryan Hansen, Megan Park, Brett Azar, Danielle Nicolet, Hanan Respublikasi Christian, Shanti, Spillan-Описание: Сюжет картины будет строиться вокруг обычного финансового консультанта, который когда-то был первым парнем в своей школе. После того, как он случайно находит в Facebook одноклассника, бывшего "ботана", а ныне супершпиона в бегах, его жизнь претерпевает радикальные изменения, погружая героя в мир интриг, заговоров и смертельно опасных заданий.-Videoning sifati: WEB-DL 1080p
Формат видео: MKV
-Video: MPEG4 Video (H264) 1916x796 23.976fps
Audio: Dolby AC3 48000Hz 6ch 384kbps Rus
Audio: Dolby AC3 48000Hz stereo 192kbps Eng
Audio: MP3 44100Hz stereo 320kbps
Uzb-

MediaInfo

General
Unique ID : 255152056993401059833330883452738431581 (0xBFF47FAA618E8477BDAB0A845ACB6A5D)
Complete name :
Format : Matroska
Format version : Version 4 / Version 2
File size : 4.09 GiB
Duration : 1 h 47 min
Overall bit rate : 5 443 kb/s
Movie name : Полтора.шпиона.2016.WEB-DL.[1080p].NNMClub.to
Encoded date : UTC 2017-06-27 19:04:51
Writing application : mkvmerge v9.2.0 ('Photograph') 32bit
Writing library : libebml v1.3.3 + libmatroska v1.4.4
Video
ID : 1
Format : AVC
Format/Info : Advanced Video Codec
Format profile : High@L4
Format settings, CABAC : Yes
Format settings, RefFrames : 5 frames
Codec ID : V_MPEG4/ISO/AVC
Duration : 1 h 47 min
Bit rate : 4 551 kb/s
Width : 1 916 pixels
Height : 796 pixels
Display aspect ratio : 2.40:1
Frame rate mode : Constant
Frame rate : 23.976 (23976/1000) FPS
Color space : YUV
Chroma subsampling : 4:2:0
Bit depth : 8 bits
Scan type : Progressive
Bits/(Pixel*Frame) : 0.124
Stream size : 3.42 GiB (84%)
Title : Полтора.шпиона.2016.WEB-DL.[1080p].NNMClub.to
Language : English
Default : Yes
Forced : No
Color range : Limited
Color primaries : BT.709
Transfer characteristics : BT.709
Matrix coefficients : BT.709
Audio #1
ID : 2
Format : AC-3
Format/Info : Audio Coding 3
Format settings, Endianness : Big
Codec ID : A_AC3
Duration : 1 h 47 min
Bit rate mode : Constant
Bit rate : 384 kb/s
Channel(s) : 6 channels
Channel positions : Front: L C R, Side: L R, LFE
Sampling rate : 48.0 kHz
Frame rate : 31.250 FPS (1536 SPF)
Bit depth : 16 bits
Compression mode : Lossy
Stream size : 295 MiB (7%)
Title : iTunes
Language : Russian
Service kind : Complete Main
Default : Yes
Forced : Yes
Audio #2
ID : 3
Format : AC-3
Format/Info : Audio Coding 3
Format settings, Endianness : Big
Codec ID : A_AC3
Duration : 1 h 47 min
Bit rate mode : Constant
Bit rate : 192 kb/s
Channel(s) : 2 channels
Channel positions : Front: L R
Sampling rate : 48.0 kHz
Frame rate : 31.250 FPS (1536 SPF)
Bit depth : 16 bits
Compression mode : Lossy
Stream size : 148 MiB (4%)
Title : Original
Language : English
Service kind : Complete Main
Default : No
Forced : No
Audio #3
ID : 4
Format : MPEG Audio
Format version : Version 1
Format profile : Layer 3
Mode : Joint stereo
Codec ID : A_MPEG/L3
Codec ID/Hint : MP3
Duration : 1 h 47 min
Bit rate mode : Constant
Bit rate : 320 kb/s
Channel(s) : 2 channels
Sampling rate : 44.1 kHz
Frame rate : 38.281 FPS (1152 SPF)
Compression mode : Lossy
Stream size : 246 MiB (6%)
Writing library : LAME3.99.5
Default : No
Forced : No


So‘ngi marta tahrirlandi: Javohir123 (2017-10-27 18:09), Jami tahrirlangan 1 marta
Profil ShX

RustamoFF

Jins:
Yigit
Staj:
1 yil 1 oy
Xabarlar:
8

Qayerdan: Toshkent

Taqiq:

  • Poster by JR
  • Mavzu yaratish 27-Okt-2017 13:44 (14 soat o‘tgach)

    Iqitibos

    Profil ShX

    vuelta

    Jins:
    Yigit
    Staj:
    1 yil 3 oy
    Xabarlar:
    298
    Taqiq:

    RustamoFF, muallif sizni posterizni qo'ysa biz ham lentaga posterizni quyamiz

    Mavzu yaratish 27-Okt-2017 14:57 (1 soat 13 daqiqa o‘tgach)

    Iqitibos

    Profil ShX

    Javohir123 ®

    Jins:
    Yigit
    Staj:
    1 yil 1 oy
    Xabarlar:
    48
    Taqiq:

    Rahmat O'zimham o'rganyapman shartmas

    Mavzu yaratish 27-Okt-2017 18:01 (3 soat o‘tgach)

    Iqitibos

    Profil ShX

    vuelta

    Jins:
    Yigit
    Staj:
    1 yil 3 oy
    Xabarlar:
    298
    Taqiq:

    RustamoFF, uzingiz reliz qilarsiz

    Mavzu yaratish 27-Okt-2017 18:25 (24 daqiqa o‘tgach)

    Iqitibos

    Profil ShX
    Xabarlarni ko‘rsatish:    

    Hozirgi vaqt: 18-Noy 17:30

    Vaqtlar farqi: UTC + 5



    Siz mavzu yaratishingiz mumkin emas
    Siz xabarlarga javob qaytarishingiz mumkin emas
    Siz o‘z xabarlaringizni tahrirlashingiz mumkin emas
    Siz o‘z xabarlaringizni o‘chirishingiz mumkin emas
    Siz so‘rovlarda ovoz berishingiz mumkin emas
    Siz xabalarga fayllarni biriktirishingiz mumkin emas
    Siz fayllarni ko‘chirishingiz mumkin emas