˂
˃
Tarqatmalar statistikasi
Ko‘chiraman: [ 2 ]
Ko‘chirmoqdaman: [ 3 ]
Ko‘chirib bo‘ldim: [ 5 ]
 
     
 
 

Javohir123 ®

Jins:
Yigit
Staj:
1 yil 2 oy
Xabarlar:
48
Taqiq:

Josuslar 2 | Тигр жив | Tiger Zinda Hai
--Chiqqan yili: 2017
Davlat: Hindiston
Janr: Jangari,Triller,Sarguzashtli
Davomiyligi: 02:39:52
Tarjima: Professional (dublyaj qilingan) MY5 O'zbek Tilida-Rejissyor: Ali Abbos Zafar-Rollarda: Salmon Xon, Katrina Kaif, Anupriya Goenka, Sajjad Delafruz, Paresh Raval, Engad Bedi, Paresh Poxja, Girish Karnad, Erdal Beshikchioli, Zahari Soffin, Kumud Mishra.-Tavsif: Terror tashkiloti Ikritadagi 25 nafar Hindistonlik hamshiralarni ushlaydi. Hindiston hukumati radikal choralar bo'yicha qaror qabul qiladi: Kubada topshiriq vaqtida 8 yil o'lik deb topilgan Avinash Ratorning eng yaxshi AVR agentiga qo'yib yuborish uchun missiyasini topish va tayinlash ...-Videoning sifati: BDRip
Video format: MKV-Video: MPEG4 Video (H264) 1280x544 24fps
Audio: Dolby AC3 48000Hz 6ch 640kbps Rus
Audio 2: MP3 44100Hz stereo 128kbps Uzb-

Media Info

General
Unique ID : 229799521911820655409696856103953680447 (0xACE1C72DFED4B70E882C9E61CDDCC83F)
Complete name :
Format : Matroska
Format version : Version 4 / Version 2
File size : 4.21 GiB
Duration : 2 h 39 min
Overall bit rate : 3 770 kb/s
Encoded date : UTC 2018-03-06 08:44:21
Writing application : mkvmerge v9.2.0 ('Photograph') 32bit
Writing library : libebml v1.3.3 + libmatroska v1.4.4
Video
ID : 1
Format : AVC
Format/Info : Advanced Video Codec
Format profile : High@L4.1
Format settings, CABAC : Yes
Format settings, RefFrames : 4 frames
Codec ID : V_MPEG4/ISO/AVC
Duration : 2 h 39 min
Bit rate : 3 000 kb/s
Width : 1 280 pixels
Height : 544 pixels
Display aspect ratio : 2.35:1
Frame rate mode : Constant
Frame rate : 24.000 FPS
Color space : YUV
Chroma subsampling : 4:2:0
Bit depth : 8 bits
Scan type : Progressive
Bits/(Pixel*Frame) : 0.180
Stream size : 3.35 GiB (80%)
Writing library : x264 core 130 r2273 b3065e6
Encoding settings : cabac=1 / ref=3 / deblock=1:0:0 / analyse=0x3:0x113 / me=hex / subme=7 / psy=1 / psy_rd=1.00:0.00 / mixed_ref=1 / me_range=16 / chroma_me=1 / trellis=1 / 8x8dct=1 / cqm=0 / deadzone=21,11 / fast_pskip=1 / chroma_qp_offset=-2 / threads=12 / lookahead_threads=2 / sliced_threads=0 / nr=0 / decimate=1 / interlaced=0 / bluray_compat=0 / constrained_intra=0 / bframes=3 / b_pyramid=2 / b_adapt=1 / b_bias=0 / direct=1 / weightb=1 / open_gop=0 / weightp=2 / keyint=250 / keyint_min=24 / scenecut=40 / intra_refresh=0 / rc_lookahead=40 / rc=2pass / mbtree=1 / bitrate=3000 / ratetol=1.0 / qcomp=0.60 / qpmin=0 / qpmax=69 / qpstep=4 / cplxblur=20.0 / qblur=0.5 / ip_ratio=1.40 / aq=1:1.00
Default : Yes
Forced : No
Audio #1
ID : 2
Format : AC-3
Format/Info : Audio Coding 3
Format settings, Endianness : Big
Codec ID : A_AC3
Duration : 2 h 39 min
Bit rate mode : Constant
Bit rate : 640 kb/s
Channel(s) : 6 channels
Channel positions : Front: L C R, Side: L R, LFE
Sampling rate : 48.0 kHz
Frame rate : 31.250 FPS (1536 SPF)
Bit depth : 16 bits
Compression mode : Lossy
Stream size : 732 MiB (17%)
Language : Russian
Service kind : Complete Main
Default : Yes
Forced : No
Audio #2
ID : 3
Format : MPEG Audio
Format version : Version 1
Format profile : Layer 3
Mode : Joint stereo
Mode extension : MS Stereo
Codec ID : A_MPEG/L3
Codec ID/Hint : MP3
Duration : 2 h 39 min
Bit rate mode : Constant
Bit rate : 128 kb/s
Channel(s) : 2 channels
Sampling rate : 44.1 kHz
Frame rate : 38.281 FPS (1152 SPF)
Compression mode : Lossy
Stream size : 146 MiB (3%)
Title : Javohir
Writing library : LAME3.98.2ЄЄЄЄЄЄЄЄЄЄ
Language : Uzbek
Default : No
Forced : No
-L A V H A L A R-
Profil ShX
Xabarlarni ko‘rsatish:    

Hozirgi vaqt: 11-Dek 21:29

Vaqtlar farqi: UTC + 5



Siz mavzu yaratishingiz mumkin emas
Siz xabarlarga javob qaytarishingiz mumkin emas
Siz o‘z xabarlaringizni tahrirlashingiz mumkin emas
Siz o‘z xabarlaringizni o‘chirishingiz mumkin emas
Siz so‘rovlarda ovoz berishingiz mumkin emas
Siz xabalarga fayllarni biriktirishingiz mumkin emas
Siz fayllarni ko‘chirishingiz mumkin emas