Abdulloh ®

Jins:
Ko‘rsatilmagan
Staj:
11 oy 23 kun
Xabarlar:
41
Taqiq:

Jumboqlar girdobida | 2.22
-Chiqqan yili: 2017
Davlat: Avstraliya, AQSh
Janr: Triller, drama
Davomiyligi: 01:38:53
-Tarjima: Professional (Ko'p ovozli kadr ortidan)
Tarjima haqida qo'shimcha ma'lumot: MY5 kanalida tarjima qilingan.
( Kanalda uzilgan joylari rus tilida)

Original ovoz yo'lagi: Rus tilida
-Rejissiyor: Pol Karri-Rollarda:
Teresa Palmer, Michiel Housshman, Sam Reed, Maev Dermodi, Remi Hii, Jon Uaters, Simona Cassell, Richard Davies, Kerry Armstrong, Keti MakConnell
-

Tavsif:
Kunduzi soat 2:22 da. Bulutsiz osmon to'satdan kuchli yorug'lik chiroqini yoritadi. Navigatsiya qurilmalari ishlamayapti. Ikki yo'lovchi samolyot havoda muqarrar ravishda to'qnashishi kerak. Tajribali havo harakatini boshqarish vositasi Dylan oxirgi paytlarda marshrutlarni taqsimlashni boshlaydi, ammo o'sha paytdan boshlab uning hayoti bir xil bo'lmaydi. Dahshatli haqiqatni izlab, Dylan Sara ismli sirli qiz bilan tanishadi va u bilan taqdirning kesishishining dahshatli sirini ochadi ...
- Sifat : HDRip
Format: MKV

Video: Xvid / 720x304 / 23.976fps / 1 721 kb/s
Audio №1:: Dolby AC3 48000Hz 6ch 384kbps [rus]
Audio №2:: MP3 44100Hz stereo 320kbps [uzb]

MediaInfo

General
Unique ID : 191725893509651110051305126522412785165 (0x903D105E8885C21AA3FF9B8990A2DE0D)
Complete name : D:\Internet\Kino UZ tracker\Jumboqlar girdobida 2.22.mkv
Format : Matroska
Format version : Version 4 / Version 2
File size : 1.68 GiB
Duration : 1 h 38 min
Overall bit rate : 2 427 kb/s
Encoded date : UTC 2018-02-02 15:03:56
Writing application : mkvmerge v7.5.0 ('Glass Culture') 64bit built on Jan 4 2015 16:48:44
Writing library : libebml v1.3.1 + libmatroska v1.4.2
Video
ID : 1
Format : MPEG-4 Visual
Format profile : Advanced Simple@L5
Format settings : BVOP1 / Custom Matrix
Format settings, BVOP : 1
Format settings, QPel : No
Format settings, GMC : No warppoints
Format settings, Matrix : Custom
Codec ID : V_MS/VFW/FOURCC / XVID
Codec ID/Hint : XviD
Duration : 1 h 38 min
Bit rate : 1 721 kb/s
Width : 720 pixels
Height : 304 pixels
Display aspect ratio : 2.35:1
Frame rate mode : Constant
Frame rate : 23.976 (23976/1000) FPS
Original frame rate : 23.976 (24000/1001) FPS
Color space : YUV
Chroma subsampling : 4:2:0
Bit depth : 8 bits
Scan type : Progressive
Compression mode : Lossy
Bits/(Pixel*Frame) : 0.328
Stream size : 1.19 GiB (71%)
Writing library : XviD 73
Default : Yes
Forced : No
Audio #1
ID : 2
Format : AC-3
Format/Info : Audio Coding 3
Codec ID : A_AC3
Duration : 1 h 38 min
Bit rate mode : Constant
Bit rate : 384 kb/s
Channel(s) : 6 channels
Channel positions : Front: L C R, Side: L R, LFE
Sampling rate : 48.0 kHz
Frame rate : 31.250 FPS (1536 SPF)
Bit depth : 16 bits
Compression mode : Lossy
Stream size : 272 MiB (16%)
Service kind : Complete Main
Default : No
Forced : No
Audio #2
ID : 3
Format : MPEG Audio
Format version : Version 1
Format profile : Layer 3
Format settings : Joint stereo
Codec ID : A_MPEG/L3
Codec ID/Hint : MP3
Duration : 1 h 38 min
Bit rate mode : Constant
Bit rate : 320 kb/s
Channel(s) : 2 channels
Sampling rate : 44.1 kHz
Frame rate : 38.281 FPS (1152 SPF)
Compression mode : Lossy
Stream size : 226 MiB (13%)
Title : O'zbek tilida @ A-Studio
Language : Uzbek
Default : Yes
Forced : Yes

Lavhalar

Profil ShX

N.U.R.I.K.B.E.K

Jins:
Yigit
Staj:
10 oy 16 kun
Xabarlar:
231

Qayerdan: Jizzax. Paxtakor

Taqiq:

torrent faylni skachat qibumapti

Mavzu yaratish 05-Mar-2018 23:48 (1 oy 1 kun o‘tgach)

Iqitibos

Profil ShX

azizbek

Jins:
Yigit
Staj:
10 oy 6 kun
Xabarlar:
128

Qayerdan: Surxondaryo

Taqiq:

N.U.R.I.K.B.E.K, Rostdan shunaqa. Admin "This is not a bencoded file" degani chiqyapti tekshirib ko'ring

Mavzu yaratish 06-Mar-2018 00:07 (19 daqiqa o‘tgach)

Iqitibos

Profil ShX

MRLG

Jins:
Yigit
Staj:
1 yil 1 oy
Xabarlar:
469
Taqiq:

N.U.R.I.K.B.E.K, azizbek, torrent fayllar tuzatildi. endi ko'chirib olishingiz mumkin.

Mavzu yaratish 06-Mar-2018 01:31 (1 soat 23 daqiqa o‘tgach)

Iqitibos

Profil ShX

N.U.R.I.K.B.E.K

Jins:
Yigit
Staj:
10 oy 16 kun
Xabarlar:
231

Qayerdan: Jizzax. Paxtakor

Taqiq:

MRLG, raxmat og'a

Mavzu yaratish 06-Mar-2018 16:12 (14 soat o‘tgach)

Iqitibos

Profil ShX
Xabarlarni ko‘rsatish:    

Hozirgi vaqt: 23-Sen 11:02

Vaqtlar farqi: UTC + 5



Siz mavzu yaratishingiz mumkin emas
Siz xabarlarga javob qaytarishingiz mumkin emas
Siz o‘z xabarlaringizni tahrirlashingiz mumkin emas
Siz o‘z xabarlaringizni o‘chirishingiz mumkin emas
Siz so‘rovlarda ovoz berishingiz mumkin emas
Siz xabalarga fayllarni biriktirishingiz mumkin emas
Siz fayllarni ko‘chirishingiz mumkin emas