Tarqatmalar statistikasi
Yoʻq
 
     
 
 

Gr@nd ®

Jins:
Yigit
Staj:
11 oy 27 kun
Xabarlar:
150

Qayerdan: Jizzax Forish

Taqiq:

- -Karib Dengizi Qaroqchilari 5 / Pirates of the Caribbean: Dead Men Tell No Tales- -Davlat: AQSH
Janr: Jangari,Kulguli,Sarguzasht
Chiqqan yili: 2017
Davomiyligi: 02:09:07-Перевод: Профессиональный (дублированный) O'zbek tilida-Rejissiyor: Joachim Roenning, Espen Sandberg-Rollarda: Johnny Depp, Javier Bardem, Jeffrey Rush, Brenton Twates, Kaya Skodelario, Kevin McNally, Golsheft Farahani, David Wenham, Stephen Graham, Angus Barnett-Описание: Kapitan Jek Sparrow omadini yutib yubordi, u eski dushmani, dahshatli kapitan Salazar va uning hayoliy garovgirlari tomonidan ovlanganligini aniqladi. Ular faqat Iblisning uchburchagidan qochib qutulishdi va barcha qaroqchilarni, shu jumladan, Jekni yo'q qilish niyatidalar. Faqatgina qudratli artefakt - Poseidon tridenti - uning egasi dengizlarni to'la nazorat qilishiga yordam beradi.-Качество видео: BDRip
Формат видео: MKV-Video: MPEG4 Video (H264) 1280x536 23.976fps 3 600 Kbps
Audio: Dolby AC3 48000Hz 6ch Rus
Audio: Dolby AC3 48000Hz 6ch Eng
Audio: MP3 48000Hz 2ch 128kbps Uzb
-

MediaInfo

General
Unique ID : 222850257486214496242159715064860307189 (0xA7A765FD96C6D92AA50EA2B832CEEEF5)
Format : Matroska
Format version : Version 4 / Version 2
File size : 4.35 GiB
Duration : 2h 9mn
Overall bit rate : 4 818 Kbps
Movie name : Xusan_Gr@nd
Encoded date : UTC 2017-09-19 16:31:15
Writing application : mkvmerge v6.8.0 ('Theme for Great Cities') 64bit built on Mar 2 2014 21:34:26
Writing library : libebml v1.3.0 + libmatroska v1.4.1
Video
ID : 1
Format : AVC
Format/Info : Advanced Video Codec
Format profile : High@L3.1
Format settings, CABAC : Yes
Format settings, ReFrames : 2 frames
Codec ID : V_MPEG4/ISO/AVC
Duration : 2h 9mn
Bit rate : 3 600 Kbps
Width : 1 280 pixels
Height : 536 pixels
Display aspect ratio : 2.40:1
Frame rate mode : Variable
Frame rate : 23.976 fps
Color space : YUV
Chroma subsampling : 4:2:0
Bit depth : 8 bits
Scan type : Progressive
Bits/(Pixel*Frame) : 0.219
Stream size : 3.16 GiB (73%)
Writing library : x264 core 129
Encoding settings : cabac=1 / ref=2 / deblock=1:0:0 / analyse=0x3:0x113 / me=hex / subme=6 / psy=1 / psy_rd=1.00:0.00 / mixed_ref=1 / me_range=16 / chroma_me=1 / trellis=0 / 8x8dct=1 / cqm=0 / deadzone=21,11 / fast_pskip=1 / chroma_qp_offset=-2 / threads=4 / lookahead_threads=1 / sliced_threads=0 / nr=0 / decimate=1 / interlaced=0 / bluray_compat=0 / constrained_intra=0 / bframes=0 / weightp=2 / keyint=250 / keyint_min=25 / scenecut=40 / intra_refresh=0 / rc_lookahead=40 / rc=2pass / mbtree=1 / bitrate=3600 / ratetol=1.0 / qcomp=0.60 / qpmin=10 / qpmax=51 / qpstep=4 / cplxblur=20.0 / qblur=0.5 / ip_ratio=1.41 / aq=1:1.00
Default : Yes
Forced : No
Audio #1
ID : 2
Format : AC-3
Format/Info : Audio Coding 3
Mode extension : CM (complete main)
Format settings, Endianness : Big
Codec ID : A_AC3
Duration : 2h 9mn
Bit rate mode : Constant
Bit rate : 640 Kbps
Channel(s) : 6 channels
Channel positions : Front: L C R, Side: L R, LFE
Sampling rate : 48.0 KHz
Bit depth : 16 bits
Compression mode : Lossy
Stream size : 591 MiB (13%)
Title : Dub AC3 5.1 @ 640 kbps
Language : Russian
Default : Yes
Forced : No
Audio #2
ID : 3
Format : AC-3
Format/Info : Audio Coding 3
Mode extension : CM (complete main)
Format settings, Endianness : Big
Codec ID : A_AC3
Duration : 2h 9mn
Bit rate mode : Constant
Bit rate : 448 Kbps
Channel(s) : 6 channels
Channel positions : Front: L C R, Side: L R, LFE
Sampling rate : 48.0 KHz
Bit depth : 16 bits
Compression mode : Lossy
Stream size : 414 MiB (9%)
Title : Original AC3 5.1 @ 448 kbps
Language : English
Default : No
Forced : No
Audio #3
ID : 4
Format : MPEG Audio
Format version : Version 1
Format profile : Layer 3
Mode : Joint stereo
Mode extension : MS Stereo
Codec ID : A_MPEG/L3
Codec ID/Hint : MP3
Duration : 2h 9mn
Bit rate mode : Constant
Bit rate : 128 Kbps
Channel(s) : 2 channels
Sampling rate : 44.1 KHz
Compression mode : Lossy
Stream size : 118 MiB (3%)
Title : Xusan_Gr@nd
Writing library : LAME3.98.2
Language : Uzbek
Default : No
Forced : No


So‘ngi marta tahrirlandi: Gr@nd (2017-10-30 12:28), Jami tahrirlangan 2 marta
Profil ShX

Frozen

Jins:
Yigit
Staj:
1 yil 1 oy
Xabarlar:
58

Qayerdan: Toshkent, Navoi

Taqiq:

Qoyil lekin, man endi taxlab boshlagandim bu kinoni.

Mavzu yaratish 28-Sen-2017 23:37 (2 daqiqa o‘tgach)

Iqitibos

Profil ShX

Gr@nd ®

Jins:
Yigit
Staj:
11 oy 27 kun
Xabarlar:
150

Qayerdan: Jizzax Forish

Taqiq:

Frozen, Taxlap nima qilasi ko'chirip oling Bo'ldi kerak bo'lsa 13 GB ligi bor

Mavzu yaratish 28-Sen-2017 23:39 (1 daqiqa o‘tgach)

Iqitibos

Profil ShX

vuelta

Jins:
Yigit
Staj:
1 yil 1 oy
Xabarlar:
295
Taqiq:

qoil reliz quwiwdan charchamanglar

Mavzu yaratish 29-Sen-2017 09:49 (10 soat o‘tgach)

Iqitibos

Profil ShX

RustamoFF

Jins:
Yigit
Staj:
11 oy 10 kun
Xabarlar:
8

Qayerdan: Toshkent

Taqiq:

Holasela tarjima kinolaga ozbecha LOGO yasaberman emdi xolovchulagadee adminla etiborga ob korila gapimmi uzbecha trackerda ruscha LOGO la bosa mancha yarashmidi yana bir oylab korila administratorla lekin zor qilib qoldan kegancha ciroyli qilib yasaberman okala!

Mavzu yaratish 13-Okt-2017 10:22 (14 kun o‘tgach)

Iqitibos

Profil ShX

jox

Jins:
Yigit
Staj:
11 oy 8 kun
Xabarlar:
7
Taqiq:

199Qoyil lekin, man endi taxlab boshlagandim bu kinoni.
200Frozen, Taxlap nima qilasi ko'chirip oling Bo'ldi kerak bo'lsa 13 GB ligi bor
be bm

Mavzu yaratish 15-Okt-2017 09:51 (1 kun 23 soat o‘tgach)

Iqitibos

Profil ShX
Xabarlarni ko‘rsatish:    

Hozirgi vaqt: 23-Sen 11:34

Vaqtlar farqi: UTC + 5



Siz mavzu yaratishingiz mumkin emas
Siz xabarlarga javob qaytarishingiz mumkin emas
Siz o‘z xabarlaringizni tahrirlashingiz mumkin emas
Siz o‘z xabarlaringizni o‘chirishingiz mumkin emas
Siz so‘rovlarda ovoz berishingiz mumkin emas
Siz xabalarga fayllarni biriktirishingiz mumkin emas
Siz fayllarni ko‘chirishingiz mumkin emas