MRLG ®

Jins:
Yigit
Staj:
1 yil 1 oy
Xabarlar:
465
Taqiq:

Karib dengizi qaroqchilari: Murdalar ertak aytishmaydi«Barcha qaroqchilar o'lishi kerak» FILM HAQIDA MA'LUMOT
Chiqqan yili: 2017
Davlat: AQSH
Janr: fentezi, jangari, komediya, sarguzasht
Davomiyligi: 02:09:07
Tarjima: To'liq dublyaj [iTunes] + MY5 + Kinoteatr

Rejissyor: Xoakim Ronning, Espen Sandberg
ROLLARDA
Djonni Depp, Xaver Bardem, Djeffri Rash, Brenton Tueyts, Kaya Skodelario, Kevin MakNelli, Golshifte Faraxani, Devid Uenem, Stiven Grem, Engus Barnett, Martin Klebba, Adam Braun

TAVSIF
O'z omadini qo'ldan boy bergan Kapitan Jek chumchuq, uning eski dushmani, daxshatli kapitan Salazar va uning arvoh qaroqchilari tomonidan qidirilayotganini bilib qoladi. Kapitan Salazar Iblis uchburchagidan qochib qutulishadi va barcha qaroqchilarni shu jumladan, Jekni yo'q qilish niyatidalar. Faqatgina qudratli artefakt - Poseidon uch boshli nayzasi - uning egasiga dengizlarni to'la nazorat qilishiga yordam beradi.

Texnik ma'lumotlar
КиноПоиск: 6.595 (78 435)
IMDb: 6.70 (160 002)

Sifat: BDRip
Format: AVI
Video: XviD 720x304 (2.35:1) 1413 kbps 23,976 fps 0,269 bpp
Audio №1: AC3 / 2.0 / 48 kHz / 192 kbps / | iTunes | Rus tilida (To'liq dublyaj)
Audio №2: MP3 / 2.0 / 48 kHz / 128 kbps / | MY5 | O'zbek tilida (Ko'p ovozli, kadr ortidan)
Audio №3: MP3 / 2.0 / 48 kHz / 128 kbps / | Kinoteatr | O'zbek tilida (Ko'p ovozli, kadr ortidan)

MI

General
Complete name                            : D:\Кино\Tarjima filmlar\Karib dengiz qaroqchilari. Murdalar ertak aytmaydi (2017 - BDRip) (MY5 & Kinoteatr & iTunes).avi
Format                                   : AVI
Format/Info                              : Audio Video Interleave
File size                                : 1.70 GiB
Duration                                 : 2 h 9 min
Overall bit rate                         : 1 880 kb/s
Writing application                      : VirtualDubMod 1.5.10.3 (build 2550/release)
Writing library                          : VirtualDubMod build 2550/release
Video
ID                                       : 0
Format                                   : MPEG-4 Visual
Format profile                           : Advanced Simple@L5
Format settings, BVOP                    : 1
Format settings, QPel                    : No
Format settings, GMC                     : No warppoints
Format settings, Matrix                  : Default (H.263)
Codec ID                                 : XVID
Codec ID/Hint                            : XviD
Duration                                 : 2 h 9 min
Bit rate                                 : 1 413 kb/s
Width                                    : 720 pixels
Height                                   : 304 pixels
Display aspect ratio                     : 2.35:1
Frame rate                               : 23.976 (23976/1000) FPS
Color space                              : YUV
Chroma subsampling                       : 4:2:0
Bit depth                                : 8 bits
Scan type                                : Progressive
Compression mode                         : Lossy
Bits/(Pixel*Frame)                       : 0.269
Stream size                              : 1.27 GiB (75%)
Writing library                          : XviD 73
Audio #1
ID                                       : 1
Format                                   : AC-3
Format/Info                              : Audio Coding 3
Mode extension                           : CM (complete main)
Format settings, Endianness              : Big
Codec ID                                 : 2000
Duration                                 : 2 h 9 min
Bit rate mode                            : Constant
Bit rate                                 : 192 kb/s
Channel(s)                               : 2 channels
Channel positions                        : Front: L R
Sampling rate                            : 48.0 kHz
Frame rate                               : 31.250 FPS (1536 spf)
Compression mode                         : Lossy
Stream size                              : 177 MiB (10%)
Alignment                                : Split accross interleaves
Interleave, duration                     : 42  ms (1.00 video frame)
Interleave, preload duration             : 500  ms
Audio #2
ID                                       : 2
Format                                   : MPEG Audio
Format version                           : Version 1
Format profile                           : Layer 3
Codec ID                                 : 55
Codec ID/Hint                            : MP3
Duration                                 : 2 h 9 min
Bit rate mode                            : Constant
Bit rate                                 : 128 kb/s
Channel(s)                               : 2 channels
Sampling rate                            : 48.0 kHz
Compression mode                         : Lossy
Stream size                              : 118 MiB (7%)
Alignment                                : Aligned on interleaves
Interleave, duration                     : 42  ms (1.00 video frame)
Interleave, preload duration             : 504  ms
Writing library                          : LAME3.99r
Encoding settings                        : -m s -V 4 -q 0 -lowpass 17 -b 128
Audio #3
ID                                       : 3
Format                                   : MPEG Audio
Format version                           : Version 1
Format profile                           : Layer 3
Codec ID                                 : 55
Codec ID/Hint                            : MP3
Duration                                 : 2 h 9 min
Bit rate mode                            : Constant
Bit rate                                 : 128 kb/s
Channel(s)                               : 2 channels
Sampling rate                            : 48.0 kHz
Compression mode                         : Lossy
Stream size                              : 118 MiB (7%)
Alignment                                : Aligned on interleaves
Interleave, duration                     : 42  ms (1.00 video frame)
Interleave, preload duration             : 504  ms
Writing library                          : LAME3.99r
Encoding settings                        : -m s -V 4 -q 0 -lowpass 17 -b 128

Miniatyura

Filmdan kadrlar



So‘ngi marta tahrirlandi: MRLG (2018-05-27 03:38), Jami tahrirlangan 1 marta
Profil ShX

BestBoy

Jins:
Yigit
Staj:
11 oy 15 kun
Xabarlar:
63
Taqiq:

kinoteatr kanali bu filmni ko'p montaj qilipti, aynan murdalarni yuzini yopib hira qilgan my5 unaqa emas edi

Mavzu yaratish 05-Dek-2017 17:57 (5 soat o‘tgach)

Iqitibos

Profil ShX
Xabarlarni ko‘rsatish:    

Hozirgi vaqt: 21-Sen 10:55

Vaqtlar farqi: UTC + 5



Siz mavzu yaratishingiz mumkin emas
Siz xabarlarga javob qaytarishingiz mumkin emas
Siz o‘z xabarlaringizni tahrirlashingiz mumkin emas
Siz o‘z xabarlaringizni o‘chirishingiz mumkin emas
Siz so‘rovlarda ovoz berishingiz mumkin emas
Siz xabalarga fayllarni biriktirishingiz mumkin emas
Siz fayllarni ko‘chirishingiz mumkin emas