˂
˃
Tarqatmalar statistikasi
Ko‘chirib bo‘ldim: [ 4 ]
 
     
 
 

MRLG ®

Jins:
Yigit
Staj:
1 yil 3 oy
Xabarlar:
523
Taqiq:

-Kichkina daho | Одарённая | Gifted- FILM HAQIDA MA`LUMOT
Chiqqan yili: 2017
Davlat: AQSH
Janri: Drama
Davomiyligi: 01:41:10
Tarjima: Professional (Toliq tarjima, kadr ortidan) | Yoshlar dublyaji-Rejissiyor: Mark Uebb / Marc Webb
Rollarda
Kris Evans, MakKenna Greys, Lindsi Dunkan, Djenni Sleyt, Oktaviya Spenser, Maykl Kendall Kaplan, Djon M. Djekson, Glenn Plammer, Djon Finn, Elizabet Marvel, Kendes B. Xarris, Djon Sklaroff-Tavsif
Фрэнк Адлер живет в прибрежном городке во Флориде и воспитывает в одиночку свою необычайно одаренную племянницу Мэри. Но планы парня о спокойной школьной жизни для девочки рушатся, когда о математических способностях ребенка узнает грозная мать Фрэнка Эвелин. У бабушки свои представления о будущем внучки, и ради этого она готова даже разлучить Мэри с Фрэнком.-Qo`shimcha ma`lumotlar
-Sifat: HDRip
Format: AVI
Video: Xvid, 720x304, 23.976fps, 1668kbps
Audio #1: MP3, 48000Hz, 2ch, 128kbps | O`zbek
Audio #2: Dolby AC3, 48000Hz, 6ch, 384kbps | Rus
-

MI

General
Complete name               : D:\Кино\O'zbek Tarjima filmlari\Одарённая.2017.Yoshlar.Dub\Kichkina Daho.2O17.Yoshlar.Dub.HDRip.avi
Format                      : AVI
Format/Info                 : Audio Video Interleave
File size                   : 1.55 GiB
Duration                    : 1 h 41 min
Overall bit rate            : 2 195 kb/s
Writing application         : VirtualDubMod 1.5.10.3 | www.virtualdub-fr.org || (build 2550/release)
Writing library             : VirtualDubMod build 2550/release
Video
ID                          : 0
Format                      : MPEG-4 Visual
Format profile              : Advanced Simple@L5
Format settings, BVOP       : 2
Format settings, QPel       : No
Format settings, GMC        : No warppoints
Format settings, Matrix     : Default (MPEG)
Codec ID                    : XVID
Codec ID/Hint               : XviD
Duration                    : 1 h 41 min
Bit rate                    : 1 669 kb/s
Width                       : 720 pixels
Height                      : 304 pixels
Display aspect ratio        : 2.35:1
Frame rate                  : 23.976 (24000/1001) FPS
Color space                 : YUV
Chroma subsampling          : 4:2:0
Bit depth                   : 8 bits
Scan type                   : Progressive
Compression mode            : Lossy
Bits/(Pixel*Frame)          : 0.318
Stream size                 : 1.18 GiB (76%)
Writing library             : XviD 1.2.1 (UTC 2008-12-04)
Audio #1
ID                          : 1
Format                      : MPEG Audio
Format version              : Version 1
Format profile              : Layer 3
Codec ID                    : 55
Codec ID/Hint               : MP3
Duration                    : 1 h 41 min
Bit rate mode               : Constant
Bit rate                    : 128 kb/s
Channel(s)                  : 2 channels
Sampling rate               : 48.0 kHz
Compression mode            : Lossy
Stream size                 : 92.6 MiB (6%)
Alignment                   : Aligned on interleaves
Interleave, duration        : 42  ms (1.00 video frame)
Interleave, preload duratio : 504  ms
Writing library             : LAME3.99r
Encoding settings           : -m s -V 4 -q 0 -lowpass 17 -b 128
Audio #2
ID                          : 2
Format                      : AC-3
Format/Info                 : Audio Coding 3
Format settings, Endianness : Big
Codec ID                    : 2000
Duration                    : 1 h 41 min
Bit rate mode               : Constant
Bit rate                    : 384 kb/s
Channel(s)                  : 6 channels
Channel positions           : Front: L C R, Side: L R, LFE
Sampling rate               : 48.0 kHz
Frame rate                  : 31.250 FPS (1536 SPF)
Bit depth                   : 16 bits
Compression mode            : Lossy
Stream size                 : 278 MiB (17%)
Alignment                   : Split accross interleaves
Interleave, duration        : 42  ms (1.00 video frame)
Interleave, preload duratio : 500  ms
Service kind                : Complete Main

Мiniatyura

Skrinshotlar

Profil ShX

vuelta

Jins:
Yigit
Staj:
1 yil 3 oy
Xabarlar:
298
Taqiq:

zor

Mavzu yaratish 16-Avg-2017 12:35 (4 daqiqa o‘tgach)

Iqitibos

Profil ShX

MRLG ®

Jins:
Yigit
Staj:
1 yil 3 oy
Xabarlar:
523
Taqiq:

Agar kompyuteringizda Teredo o`rnatilmagan bo`lsa sider va licherlar (uzonline abonentlariga ta`luqli) bir - biriga ulanishi qiyin.

Mavzu yaratish 16-Avg-2017 13:03 (28 daqiqa o‘tgach)

Iqitibos

Profil ShX

vuelta

Jins:
Yigit
Staj:
1 yil 3 oy
Xabarlar:
298
Taqiq:

menda tredo urnatilmagan

Mavzu yaratish 16-Avg-2017 13:24 (20 daqiqa o‘tgach)

Iqitibos

Profil ShX

MRLG ®

Jins:
Yigit
Staj:
1 yil 3 oy
Xabarlar:
523
Taqiq:

Mana bu teredo ustanovshikni "от имени Администратора" usulida o`rnatish kerak va utorrent dasturni qayta yuklash kerak, shundan so`ng uzonline abonentlari bir birilari bilan fayl almashishlari mumkin boladi.

Mavzu yaratish 16-Avg-2017 15:27 (2 soat 3 daqiqa o‘tgach)

Iqitibos

Profil ShX
Xabarlarni ko‘rsatish:    

Hozirgi vaqt: 18-Noy 17:05

Vaqtlar farqi: UTC + 5



Siz mavzu yaratishingiz mumkin emas
Siz xabarlarga javob qaytarishingiz mumkin emas
Siz o‘z xabarlaringizni tahrirlashingiz mumkin emas
Siz o‘z xabarlaringizni o‘chirishingiz mumkin emas
Siz so‘rovlarda ovoz berishingiz mumkin emas
Siz xabalarga fayllarni biriktirishingiz mumkin emas
Siz fayllarni ko‘chirishingiz mumkin emas