MRLG ®

Jins:
Yigit
Staj:
1 yil 1 oy
Xabarlar:
469
Taqiq:

-Kichkina hojayin | Босс-молокосос | The Boss Baby- FILM HAQIDA MA`LUMOT
Chiqqan yili: 2017
Davlat: AQSH
Janri: Multfilm, Komediya, Oilaviy
Davomiyligi: 01:37:53
Tarjima: Dublyaj (Professional kadr ortidan)-Rejissiyor: Tom MakGrat / Tom McGrath
Rollarda
Alek Bolduin, Stiv Bushemi, Dzhimmi Kimmel, Liza Kudrou, Tobi Maguajr, Majlz Kristofer Bakshi, James McGrath, Konrad Vernon, ViviE'nn Ji, E'rik Bell ml., De'vid Soren, E'di Mirman-Tavsif
Эта актуальная во все времена история для взрослых и детей рассказывается от лица семилетнего брата новорожденного - фантазера Тима, который ревнует его к родителям. Но главный герой - совсем не простой ребенок, он обладает лидерскими задатками, уже носит деловые костюмы и во всем видит бизнес-задачу.-Qo`shimcha ma`lumotlar
KinoPoisk: 6.564 (11 882)
IMDb: 6.50 (16 247)-Sifat: WEB-DLRip
Format: AVI
Video: XviD 720x304 (2.35:1) 1606 kbps 23,976 fps 0,306 bpp
Аудио #1: MP3 / 44100Hz / 2ch / 128kbps / O`zbek tilida
Аудио #2: AC3 / 5.1 / 48 kHz / 384 kbps / Rus tilida-

MI

Общее
Полное имя                               : D:\Кино\O'zbek Tarjima filmlari\Kichkina Ho'jayin 2017\Kichkina Ho'jayin.2O17.D.WEB-DLRip.avi
Формат                                   : AVI
Формат/Информация                        : Audio Video Interleave
Размер файла                             : 1,46 Гбайт
Продолжительность                        : 1 ч. 37 м.
Общий поток                              : 2130 Кбит/сек
Название фильма                          : b0C.m0L0k0C0C.2O17.D.WEB-DLRip.14OOMB
Программа кодирования                    : VirtualDubMod 1.5.10.3 | www.virtualdub-fr.org || (build 2550/release)
Библиотека кодирования                   : VirtualDubMod build 2550/release
Формат оригинала/Имя                     : Movie
Видео
Идентификатор                            : 0
Формат                                   : MPEG-4 Visual
Профиль формата                          : Advanced Simple@L5
Параметр BVOP формата                    : 2
Параметр QPel формата                    : Нет
Параметр GMC формата                     : Без точки перехода
Параметр матрицы формата                 : Default (MPEG)
Идентификатор кодека                     : XVID
Идентификатор кодека/Подсказка           : XviD
Продолжительность                        : 1 ч. 37 м.
Битрейт                                  : 1606 Кбит/сек
Ширина                                   : 720 пикселей
Высота                                   : 304 пикселя
Соотношение сторон                       : 2,35:1
Частота кадров                           : 23,976 (24000/1001) кадра/сек
Цветовое пространство                    : YUV
Субдискретизация насыщенности            : 4:2:0
Битовая глубина                          : 8 бит
Тип развёртки                            : Прогрессивная
Метод сжатия                             : С потерями
Бит/(Пиксели*Кадры)                      : 0.306
Размер потока                            : 1,10 Гбайт (75%)
Библиотека кодирования                   : XviD 1.2.1 (UTC 2008-12-04)
Аудио #1
Идентификатор                            : 1
Формат                                   : MPEG Audio
Версия формата                           : Version 1
Профиль формата                          : Layer 3
Идентификатор кодека                     : 55
Идентификатор кодека/Подсказка           : MP3
Продолжительность                        : 1 ч. 37 м.
Вид битрейта                             : Постоянный
Битрейт                                  : 128 Кбит/сек
Каналы                                   : 2 канала
Частота                                  : 44,1 КГц
Метод сжатия                             : С потерями
Размер потока                            : 89,6 Мбайт (6%)
Выравнивание                             : Разделение по промежуткам
Продолжительность промежутка             : 42  мс. (1,00 видеокадр)
Время предзагрузки промежутка            : 500  мс.
Библиотека кодирования                   : LAME3.99r
Настройки программы                      : -m s -V 4 -q 0 -lowpass 17 -b 128
Аудио #2
Идентификатор                            : 2
Формат                                   : AC-3
Формат/Информация                        : Audio Coding 3
Параметр Endianness формата              : Big
Идентификатор кодека                     : 2000
Продолжительность                        : 1 ч. 37 м.
Вид битрейта                             : Постоянный
Битрейт                                  : 384 Кбит/сек
Каналы                                   : 6 каналов
Расположение каналов                     : Front: L C R, Side: L R, LFE
Частота                                  : 48,0 КГц
Частота кадров                           : 31,250 кадров/сек (1536 SPF)
Битовая глубина                          : 16 бит
Метод сжатия                             : С потерями
Размер потока                            : 268 Мбайт (18%)
Выравнивание                             : Разделение по промежуткам
Продолжительность промежутка             : 42  мс. (1,00 видеокадр)
Время предзагрузки промежутка            : 500  мс.
ServiceKind/String                       : Complete Main

Miniatyura

Bilasizmi...

  • Первый трейлер к фильму вышел 16 октября в День Босса - профессиональный праздник руководителей всех уровней, от бригадира до президента.
SKRINSHOTLAR


So‘ngi marta tahrirlandi: MRLG (2017-08-17 16:37), Jami tahrirlangan 1 marta
Profil ShX

Deejay

Jins:
Yigit
Staj:
1 yil 1 oy
Xabarlar:
22

Qayerdan: Daejeon#

Taqiq:

Zo'r multik hammaga tavfiya etaman ay

Mavzu yaratish 17-Avg-2017 16:35 (44 daqiqa o‘tgach)

Iqitibos

Profil ShX

vuelta

Jins:
Yigit
Staj:
1 yil 1 oy
Xabarlar:
295
Taqiq:

xa zor ga uxshaydi

Mavzu yaratish 17-Avg-2017 16:46 (11 daqiqa o‘tgach)

Iqitibos

Profil ShX

vuelta

Jins:
Yigit
Staj:
1 yil 1 oy
Xabarlar:
295
Taqiq:

xa zor ga uxshaydi

Mavzu yaratish 17-Avg-2017 16:46 (2 soniya o‘tgach)

Iqitibos

Profil ShX

Deejay

Jins:
Yigit
Staj:
1 yil 1 oy
Xabarlar:
22

Qayerdan: Daejeon#

Taqiq:

Nimagadir yuklash 0 kb/s ac

Mavzu yaratish 17-Avg-2017 17:52 (1 soat 6 daqiqa o‘tgach)

Iqitibos

Profil ShX

MRLG ®

Jins:
Yigit
Staj:
1 yil 1 oy
Xabarlar:
469
Taqiq:

Deejay, Teredo ornatilganmi sizda ? Agar ornatilmagan bolsa ornatib oling: Teredo
от имени Администратора qilib zapustit qiling. keyin utorrentni qayta yuklang yoki kompga perezagruzka berib koring. shunda ham ko`chirishni boshlamasa boshqa usuldan foydalanib koramiz.

Mavzu yaratish 17-Avg-2017 18:24 (31 daqiqa o‘tgach)

Iqitibos

Profil ShX

Топик был перенесен из форума Amerika va Evropa kinofilmlari в форум Amerika va Europa multfilmlari
_-KIRA-_

Mavzu yaratish 21-Avg-2017 22:43 (4 kun o‘tgach)

Neo

Jins:
Ko‘rsatilmagan
Staj:
7 oy 21 kun
Xabarlar:
3
Taqiq:

Салом яхшимисиз иложи булса охиригача турсенгиз таркатишда илтимос рахмат яна бир бор углимга олаетган эдим

Mavzu yaratish 15-Fev-2018 21:59 (5 oy 29 kun o‘tgach)

Iqitibos

Profil ShX

vuelta

Jins:
Yigit
Staj:
1 yil 1 oy
Xabarlar:
295
Taqiq:

xd

Mavzu yaratish 15-Fev-2018 22:19 (19 daqiqa o‘tgach)

Iqitibos

Profil ShX

Neo

Jins:
Ko‘rsatilmagan
Staj:
7 oy 21 kun
Xabarlar:
3
Taqiq:

Рахмат каттакон боризга шукур углим хурсанд булади, агар вактим булса менда хам Шрек мультик бор уч хил тилда факат узбекча переводи гоблинча раздачага куяман, сизда яна бошка мультиклариз борми

Mavzu yaratish 17-Fev-2018 00:44 (1 kun 2 soat o‘tgach)

Iqitibos

Profil ShX
Xabarlarni ko‘rsatish:    

Hozirgi vaqt: 23-Sen 11:01

Vaqtlar farqi: UTC + 5



Siz mavzu yaratishingiz mumkin emas
Siz xabarlarga javob qaytarishingiz mumkin emas
Siz o‘z xabarlaringizni tahrirlashingiz mumkin emas
Siz o‘z xabarlaringizni o‘chirishingiz mumkin emas
Siz so‘rovlarda ovoz berishingiz mumkin emas
Siz xabalarga fayllarni biriktirishingiz mumkin emas
Siz fayllarni ko‘chirishingiz mumkin emas