Tarqatmalar statistikasi
Yoʻq
 
     
 
 

Vampire_1987 ®

Jins:
Ko‘rsatilmagan
Staj:
1 yil
Xabarlar:
114
Taqiq:

--King Kong / King Kong-- Davlat: AQSH
Janr: Fantastika, sarguzasht
Chiqqan yili: 2005
Davomiyligi: 02:37:33
Перевод: Dublyaj (Professional)
Tarjima haqida qo'shimcha ma'lumot: TV-Yoshlar--Rejissiyor: Peter Jackson--Rollarda: Naomi Uotts, Djek Blek, Edrian Broudi, Tomas Krechmann, Kolin Xenks, Endi Serkis, Iven Dekster Park, Djemi Bell, Lobo Chan, Djon Sammer, Kreyg Xoll, Kayl Chandler, Bill Djonson, Mark Xedlou, Djeraldin Brofi, Devid Denis, Devid Pittu, Pip Mushin, Djim Nobelok, Rik Xerbert, Li Donaxyu--Описание: В 1930-м году съемочная группа под предводительством режиссера-неудачника Карла Дэнхэма отправляется на загадочный Остров Черепа неподалеку от Суматры, чтобы изучать легенды о гигантской горилле по кличке Конг. По прибытии на место они обнаруживают, что Кинг Конг и правда существует.
Горилла живет в самой чаще непроходимых джунглей, где помимо него, спрятанные от всего мира, обитают многие создания из доисторических времен. Исследователи оказываются между двух огней - с одной стороны Кинг Конг, а с другой - его враги динозавры...--Качество видео: TVRip
Формат видео: AVI
Video: XviD 640x264 25fps 495kbps
Audio: MP3 48000Hz stereo 128kbps--

MediaInfo

General
Complete name : E:\TARJIMA TV\TV_ Go\King Kong 1 TV-Yoshlar.avi
Format : AVI
Format/Info : Audio Video Interleave
File size : 713 MiB
Duration : 2 h 37 min
Overall bit rate : 633 kb/s
Writing application : VirtualDubMod 1.5.10.3 | www.virtualdub-fr.org || (build 2550/release)
Writing library : VirtualDubMod build 2550/release
Video
ID : 0
Format : MPEG-4 Visual
Format profile : Advanced Simple@L5
Format settings, BVOP : 1
Format settings, QPel : No
Format settings, GMC : No warppoints
Format settings, Matrix : Default (H.263)
Codec ID : XVID
Codec ID/Hint : XviD
Duration : 2 h 37 min
Bit rate : 495 kb/s
Width : 640 pixels
Height : 264 pixels
Display aspect ratio : 2.40:1
Frame rate : 25.000 FPS
Color space : YUV
Chroma subsampling : 4:2:0
Bit depth : 8 bits
Scan type : Progressive
Compression mode : Lossy
Bits/(Pixel*Frame) : 0.117
Stream size : 558 MiB (78%)
Writing library : XviD 73
Audio
ID : 1
Format : MPEG Audio
Format version : Version 1
Format profile : Layer 3
Codec ID : 55
Codec ID/Hint : MP3
Duration : 2 h 37 min
Bit rate mode : Constant
Bit rate : 128 kb/s
Channel(s) : 2 channels
Sampling rate : 48.0 kHz
Compression mode : Lossy
Stream size : 144 MiB (20%)
Alignment : Aligned on interleaves
Interleave, duration : 40 ms (1.00 video frame)
Interleave, preload duration : 504 ms
Writing library : LAME3.99r
Encoding settings : -m s -V 4 -q 0 -lowpass 17 -b 128
Profil ShX

Leo

Jins:
Ko‘rsatilmagan
Staj:
11 oy 14 kun
Xabarlar:
6
Taqiq:

4GB razmerini qo'shing

Mavzu yaratish 08-Okt-2017 15:01 (6 daqiqa o‘tgach)

Iqitibos

Profil ShX
Xabarlarni ko‘rsatish:    

Hozirgi vaqt: 21-Sen 10:37

Vaqtlar farqi: UTC + 5



Siz mavzu yaratishingiz mumkin emas
Siz xabarlarga javob qaytarishingiz mumkin emas
Siz o‘z xabarlaringizni tahrirlashingiz mumkin emas
Siz o‘z xabarlaringizni o‘chirishingiz mumkin emas
Siz so‘rovlarda ovoz berishingiz mumkin emas
Siz xabalarga fayllarni biriktirishingiz mumkin emas
Siz fayllarni ko‘chirishingiz mumkin emas