Tarqatmalar statistikasi
Yoʻq
 
     
 
 

Abdulloh ®

Jins:
Ko‘rsatilmagan
Staj:
11 oy 21 kun
Xabarlar:
41
Taqiq:

Kingsman: Oltin halqa | Kingsman: Золотое кольцо / Kingsman: The Golden Circle
Chiqqan yili: 2017
Davlat: Buyuk Britaniya AQSH
Janr: triller, drama, sarguzasht
Davomiyligi: 02:21:02
-Tarjima: Professional (Ko'p ovozli kadr ortidan) O'zbek tilida
Tarjima haqida qo'shimcha ma'lumot: MY5 (Favvora studiyasi) da tarjima qilingan. ( Kanalda uzilgan joylari ingliz tilida)
Subtitrlar: Rus va Ingliz tillarida
Original ovoz yo'lagi: Inglizcha
-Rejissiyor: Matthew Vaughn-Rollarda: Colin Firth, Teron Edgerton, Edvard Xolkroft, Gordon Aleksandr, Mark Strong, Hanna Alström, Kalvin Demba, Tomas Turg'us, Toby Bakare, Julianne Mur-Tavsif:
"Kingsman" maxfiy xizmatining shtab-kvartirasi vayron qilinganida va butun dunyo noma'lum shaxslar tomonidan garovga olingan bo'lsa, britaniyalik yulduzlar bir kun Amerikaning razvedkasi, davlat arbobi, hali ham tashkilot bilan tashkil etilganligini bilib olishadi. Endi bu ikki elita maxsus xizmat birlashishi va dunyoni qutqarish uchun umumiy shafqatsiz dushmanga qarshi kurashish kerak, ya'ni Eggsi uchun normal ishlarni qilish ...-Videoning sifati: BDRip 1080p HEVC 10 Bit
Format video: MKV

Video: HVC1 1920x808 23.976fps 1080p.10bit.HEVC
Audio #1: AAC 48000Hz 8ch [eng]
Audio #2 : Dolby AC3 48000Hz 6ch 384kbps[rus]
Audio #3 : MP3 44100Hz stereo 320kbps [uzb]

MediaInfo


General
Unique ID : 233176620377209629398945049811168196374 (0xAF6C2EFD3BF90E69AED637BB2752F716)
Complete name : D:\Internet\Kino UZ tracker\Kingsman Oltin halqa Кингсмэн. Свадебное кольцо.mkv
Format : Matroska
Format version : Version 4 / Version 2
File size : 3.26 GiB
Duration : 2 h 21 min
Overall bit rate : 3 310 kb/s
Movie name : Kingsman.The.Golden.Circle.2017.1080p.10bit.HEVC | AllTor.Me / Kingsman: The Golden Circle | AllTor.Me
Description : Edited by legolas_1991 for AllTor.Me
Encoded date : UTC 2018-02-01 15:29:03
Writing application : mkvmerge v7.5.0 ('Glass Culture') 64bit built on Jan 4 2015 16:48:44
Writing library : libebml v1.3.1 + libmatroska v1.4.2
Copyright : AllTor.Me
Cover : Yes
Attachments : cover | AllTor.Me.png
ARTIST : Matthew Vaughn
Url : https://alltor.me
Video
ID : 1
Format : HEVC
Format/Info : High Efficiency Video Coding
Format profile : Main 10@L4@Main
Codec ID : V_MPEGH/ISO/HEVC
Duration : 2 h 21 min
Bit rate : 2 306 kb/s
Width : 1 920 pixels
Height : 808 pixels
Display aspect ratio : 2.40:1
Frame rate mode : Constant
Frame rate : 23.976 (24000/1001) FPS
Color space : YUV
Chroma subsampling : 4:2:0
Bit depth : 10 bits
Bits/(Pixel*Frame) : 0.062
Stream size : 2.27 GiB (70%)
Title : Kingsman.The.Golden.Circle.2017.1080p.10bit.HEVC | AllTor.Me
Default : Yes
Forced : No
Audio #1
ID : 2
Format : AAC
Format/Info : Advanced Audio Codec
Format profile : HE-AAC / LC
Format settings : Explicit
Codec ID : A_AAC-2
Duration : 2 h 21 min
Bit rate : 298 kb/s
Channel(s) : 7 channels
Channel(s)_Original : 8 channels
Channel positions : Front: L C R, Side: L R, Back: L R, LFE
Sampling rate : 48.0 kHz / 24.0 kHz
Frame rate : 23.438 FPS (1024 SPF)
Compression mode : Lossy
Delay relative to video : 31 ms
Stream size : 300 MiB (9%)
Title : ENG
Language : English
Default : No
Forced : No
Audio #2
ID : 5
Format : AC-3
Format/Info : Audio Coding 3
Codec ID : A_AC3
Duration : 2 h 21 min
Bit rate mode : Constant
Bit rate : 384 kb/s
Channel(s) : 6 channels
Channel positions : Front: L C R, Side: L R, LFE
Sampling rate : 48.0 kHz
Frame rate : 31.250 FPS (1536 SPF)
Bit depth : 16 bits
Compression mode : Lossy
Stream size : 387 MiB (12%)
Title : AllTor.Me | [DUB] DD 5.1 @ 384 kbps (iTunes)
Language : Russian
Service kind : Complete Main
Default : No
Forced : Yes
Audio #3
ID : 7
Format : MPEG Audio
Format version : Version 1
Format profile : Layer 3
Format settings : Joint stereo
Codec ID : A_MPEG/L3
Codec ID/Hint : MP3
Duration : 2 h 21 min
Bit rate mode : Constant
Bit rate : 320 kb/s
Channel(s) : 2 channels
Sampling rate : 44.1 kHz
Frame rate : 38.281 FPS (1152 SPF)
Compression mode : Lossy
Stream size : 323 MiB (10%)
Title : O'zbek tilida @ A-Studio
Language : Uzbek
Default : Yes
Forced : Yes
Text #1
ID : 3
Format : UTF-8
Codec ID : S_TEXT/UTF8
Codec ID/Info : UTF-8 Plain Text
Duration : 2 h 13 min
Bit rate : 55 b/s
Count of elements : 1877
Stream size : 54.1 KiB (0%)
Title : ENG
Language : English
Default : No
Forced : No
Text #2
ID : 4
Format : UTF-8
Codec ID : S_TEXT/UTF8
Codec ID/Info : UTF-8 Plain Text
Duration : 2 h 13 min
Bit rate : 60 b/s
Count of elements : 2136
Stream size : 58.8 KiB (0%)
Title : ENG SDH
Language : English
Default : No
Forced : No
Text #3
ID : 6
Format : UTF-8
Codec ID : S_TEXT/UTF8
Codec ID/Info : UTF-8 Plain Text
Duration : 2 h 19 min
Bit rate : 0 b/s
Count of elements : 14
Stream size : 418 Bytes (0%)
Title : Forced
Language : Russian
Default : Yes
Forced : Yes
Menu
00:00:00.000 : :Chapter 1
00:04:52.200 : :Chapter 2
00:09:39.600 : :Chapter 3
00:13:36.800 : :Chapter 4
00:18:54.400 : :Chapter 5
00:24:57.400 : :Chapter 6
00:28:43.400 : :Chapter 7
00:32:52.400 : :Chapter 8
00:39:19.000 : :Chapter 9
00:43:22.000 : :Chapter 10
00:48:26.800 : :Chapter 11
00:53:54.200 : :Chapter 12
00:58:31.400 : :Chapter 13
01:05:05.000 : :Chapter 14
01:09:52.600 : :Chapter 15
01:13:34.800 : :Chapter 16
01:19:42.000 : :Chapter 17
01:23:45.200 : :Chapter 18
01:28:55.400 : :Chapter 19
01:33:25.400 : :Chapter 20
01:40:14.800 : :Chapter 21
01:45:03.400 : :Chapter 22
01:49:38.600 : :Chapter 23
01:55:16.200 : :Chapter 24
02:01:41.000 : :Chapter 25
02:05:44.200 : :Chapter 26
02:12:36.600 : :Chapter 27
02:15:15.400 : :Chapter 28

Lavhalar



So‘ngi marta tahrirlandi: Abdulloh (2018-02-03 11:41), Jami tahrirlangan 2 marta
Profil ShX

MRLG

Jins:
Yigit
Staj:
1 yil 1 oy
Xabarlar:
465
Taqiq:

Kamchiliklarni yozib o'taman. To'g'rilab chiqarsiz.
1. Eng asosiy hato posterda begona resursni manzili joylashgan. Bu mumkin emas. Mana bu posterga almashtiring:
http://img.uztracker.me/img/2018-02/02/z4s8h9qk46u1xdz56m9mtni5q.jpg
2. Chiqqan yili: 2017 ikki marotaba yozibsiz. Bitta qatorni olib tashlang.
3. Videoning sifati: HDRip-AVC emas. Aslida BDRip 1080p HEVC 10 Bit deb yozing.
4. Формат видео: MKV lotin alifbosida yozishni unutmang.

Mavzu yaratish 02-Fev-2018 12:42 (57 daqiqa o‘tgach)

Iqitibos

Profil ShX

MRLG

Jins:
Yigit
Staj:
1 yil 1 oy
Xabarlar:
465
Taqiq:

Siz joylagan poster o'lchami : 1417 x 2018 pixels
Qoida bo'yicha poster o'lchami 600 x 500 yoki 600 x 400 pixelsdan oshmasligi kerak.
Poster o'lchamini qisqartiring yoki man bergan manzildagi posterni joylang.

Mavzu yaratish 03-Fev-2018 10:09 (21 soat o‘tgach)

Iqitibos

Profil ShX

Vampire_1987

Jins:
Ko‘rsatilmagan
Staj:
1 yil
Xabarlar:
114
Taqiq:

Bu Kinoning 1 chasti Tarjima Bo'lganmi ) Nomi Nima Bilaganlar Bo'lsa Yozib Qoldiring )

Mavzu yaratish 03-Fev-2018 10:54 (45 daqiqa o‘tgach)

Iqitibos

Profil ShX

MRLG

Jins:
Yigit
Staj:
1 yil 1 oy
Xabarlar:
465
Taqiq:

Birinchi qismi ham MY5dan bergan. Lekin internetda yo'q. Man ko'rganim ham sifati past edi. Shu sabab olmagandim.

Mavzu yaratish 03-Fev-2018 11:26 (32 daqiqa o‘tgach)

Iqitibos

Profil ShX
Xabarlarni ko‘rsatish:    

Hozirgi vaqt: 21-Sen 10:55

Vaqtlar farqi: UTC + 5



Siz mavzu yaratishingiz mumkin emas
Siz xabarlarga javob qaytarishingiz mumkin emas
Siz o‘z xabarlaringizni tahrirlashingiz mumkin emas
Siz o‘z xabarlaringizni o‘chirishingiz mumkin emas
Siz so‘rovlarda ovoz berishingiz mumkin emas
Siz xabalarga fayllarni biriktirishingiz mumkin emas
Siz fayllarni ko‘chirishingiz mumkin emas