˂
˃
Tarqatmalar statistikasi
Ko‘chirmoqdaman: [ 4 ]
Ko‘chirib bo‘ldim: [ 39 ]
 
     
 
 

MRLG ®

Jins:
Yigit
Staj:
1 yil 5 oy
Xabarlar:
542
Taqiq:

Koko siri | Тайна Коко | Coco
Chiqqan yili: 2017
Davlat: AQSH
Janr: multfilm, fentezi, komediya, detektiv, sarguzasht, oilaviy, musiqa
Davomiyligi: 01:45:02
Tarjima: Professional (Ko'p ovozli kadr ortidan) Sevimli TV
Tarjima 2: Professional (dublyaj qilingan) iTunes
Tarjima 3: Professional (dublyaj qilingan) Original-Rejissyor: Li Ankrich / Lee Unkrich, Edriyan Molina / Adrian Molina-Rollarda: Entoni Gonsales, Gael Garsia Bernal, Bendjamin Brett, Alanna Yubak, Rene Viktor, Xayme Kamil, Alfonso Arau, Xerbert Sigensa, Gabriel Iglesias, Lombardo Boyyar, Ana Ofelia Murguyya, Nataliya Kordova-Tavsif: 12 yoshli Migel Meksika qishloqlarining birida etikdo`zlar oilasida yashaydi va yashirincha musiqachi bo`lishni orzu qiladi. Yashirincha - chunki uning oilaviy ajdodlari musiqani lan`atlangan deb hisoblashadi. Qachonlardir uning katta buvisining otasi o`z xotinini tashlab ketgan, Migelning katta buvisini onasini, Musiqa mavzusi uning oilasida taqiqlangandan beri, uning orzulari, endi Migelga tinch yashashga yo`l qo`ymaydi. Migelning aniqlashicha, u bilan uning sevimli qo`shiqchisi oldinroq vafot etgan Ernesto de la Krus o`rtasida qandaydir noaniq bog`liklik bor. Yigitcha o`z kumirini oldiga O`lganlar yurtiga jo`naydi va o`zining ajdodlarini ruhlarini uchratadi. Migel u yerda Gektor ismli (Sklet ko`rinishidagi) trikster ruh bilan tanishib qoladi va u Migelning yo`l boshichisga aylanadi. Ikkovlon de la Krusni izlashga jo`nashadi.- -Videoning sifati: BDRip-AVC [Coco.2017.1080p.Blu-ray.AVC.DTS-HD.MA.7.1-nLiBRA]
Video format: MKV
Video: AVC, 2269 Kbps, 1108x464 (2.40:1), 23,976 fps
Audio: MP3, 128 Kbps, 48 Khz, 2.0 - UZB
Audio 2: AC3, 384 Kbps, 48 Khz, 5.1 - RUS
Audio 3: AAC, 256 Kbps, 48 Khz, 5.1 - ENG
Subtitrlar: rus tilida (biriktirilgan, to'liq), ingliz tilida (to'liq, SDH, SDH rangli)
-

Media Info

Общее
Уникальный идентификатор                 : 175893897410941693724974898141954469604 (0x8453EEB226B228A87DF63C0B8E526EE4)
Полное имя                               : D:\Кино\Tarjima filmlar\HD Films Collection\Multfilmlar to'plami HD\Coco.2017.BDRip-AVC.[MRLG].mkv
Формат                                   : Matroska
Версия формата                           : Version 4
Размер файла                             : 2,23 Гбайт
Продолжительность                        : 1 ч. 45 м.
Общий поток                              : 3040 Кбит/сек
Название фильма                          : Coco (2017) (Rip by stalkerok)
Дата кодирования                         : UTC 2018-12-31 09:02:19
Программа кодирования                    : mkvmerge v29.0.0 ('Like It Or Not') 64-bit
Библиотека кодирования                   : libebml v1.3.6 + libmatroska v1.4.9
Обложка                                  : Yes
Attachments                              : cover.jpg
Видео
Идентификатор                            : 5
Формат                                   : AVC
Формат/Информация                        : Advanced Video Codec
Профиль формата                          : High@L4.1
Настройки формата                        : CABAC / 12 Ref Frames
Параметр CABAC формата                   : Да
Параметр RefFrames формата               : 12 кадров
Идентификатор кодека                     : V_MPEG4/ISO/AVC
Продолжительность                        : 1 ч. 45 м.
Битрейт                                  : 2269 Кбит/сек
Ширина                                   : 1108 пикселей
Высота                                   : 464 пикселя
Соотношение сторон                       : 2,40:1
Режим частоты кадров                     : Постоянный
Частота кадров                           : 23,976 (24000/1001) кадра/сек
Цветовое пространство                    : YUV
Субдискретизация насыщенности            : 4:2:0
Битовая глубина                          : 8 бит
Тип развёртки                            : Прогрессивная
Бит/(Пиксели*Кадры)                      : 0.184
Размер потока                            : 1,66 Гбайт (75%)
Заголовок                                : Coco (2017) (Rip by stalkerok)
Библиотека кодирования                   : x264 core 152 r2851kMod ba24899
Настройки программы                      : cabac=1 / ref=12 / deblock=1:-1:-1 / analyse=0x3:0x133 / me=umh / subme=11 / psy=1 / fade_compensate=0.00 / psy_rd=1.00:0.00 / mixed_ref=1 / me_range=32 / chroma_me=1 / trellis=2 / 8x8dct=1 / cqm=0 / deadzone=21,11 / fast_pskip=0 / chroma_qp_offset=-2 / threads=12 / lookahead_threads=3 / sliced_threads=0 / nr=0 / decimate=0 / interlaced=0 / bluray_compat=0 / constrained_intra=0 / bframes=14 / b_pyramid=2 / b_adapt=2 / b_bias=0 / direct=3 / weightb=1 / open_gop=0 / weightp=2 / keyint=240 / keyint_min=23 / scenecut=40 / intra_refresh=0 / rc_lookahead=60 / rc=2pass / mbtree=0 / bitrate=2269 / ratetol=1.0 / qcomp=0.65 / qpmin=0 / qpmax=69 / qpstep=4 / cplxblur=20.0 / qblur=0.5 / vbv_maxrate=50000 / vbv_bufsize=62500 / nal_hrd=none / filler=0 / ip_ratio=1.40 / pb_ratio=1.30 / aq=3:0.80 / zones=138311,151096,q=32
Default                                  : Да
Forced                                   : Нет
Аудио #1
Идентификатор                            : 1
Формат                                   : MPEG Audio
Версия формата                           : Version 1
Профиль формата                          : Layer 3
Настройки формата                        : Joint stereo / MS Stereo
Идентификатор кодека                     : A_MPEG/L3
Идентификатор кодека/Подсказка           : MP3
Продолжительность                        : 1 ч. 45 м.
Вид битрейта                             : Постоянный
Битрейт                                  : 128 Кбит/сек
Каналы                                   : 2 канала
Частота                                  : 48,0 КГц
Частота кадров                           : 41,667 кадра/сек (1152 SPF)
Метод сжатия                             : С потерями
Размер потока                            : 96,2 Мбайт (4%)
Заголовок                                : Sevimli.Dub (MRLG)
Библиотека кодирования                   : LAME3.100
Настройки программы                      : -m j -V 4 -q 2 -lowpass 17 -b 128
Язык                                     : Uzbek
Default                                  : Да
Forced                                   : Да
Аудио #2
Идентификатор                            : 2
Формат                                   : AC-3
Формат/Информация                        : Audio Coding 3
Коммерческое название                    : Dolby Digital
Идентификатор кодека                     : A_AC3
Продолжительность                        : 1 ч. 45 м.
Вид битрейта                             : Постоянный
Битрейт                                  : 384 Кбит/сек
Каналы                                   : 6 каналов
Channel layout                           : L R C LFE Ls Rs
Частота                                  : 48,0 КГц
Частота кадров                           : 31,250 кадров/сек (1536 SPF)
Битовая глубина                          : 16 бит
Метод сжатия                             : С потерями
Размер потока                            : 288 Мбайт (13%)
Заголовок                                : iTunes
Язык                                     : Russian
ServiceKind/String                       : Complete Main
Default                                  : Нет
Forced                                   : Нет
Аудио #3
Идентификатор                            : 6
Формат                                   : AAC LC
Формат/Информация                        : Advanced Audio Codec Low Complexity
Идентификатор кодека                     : A_AAC-2
Продолжительность                        : 1 ч. 45 м.
Битрейт                                  : 256 Кбит/сек
Каналы                                   : 6 каналов
Channel layout                           : C L R Ls Rs LFE
Частота                                  : 48,0 КГц
Частота кадров                           : 46,875 кадров/сек (1024 SPF)
Метод сжатия                             : С потерями
Задержка видео                           : 9 мс.
Размер потока                            : 192 Мбайт (8%)
Язык                                     : English
Default                                  : Нет
Forced                                   : Нет
Текст #1
Идентификатор                            : 3
Формат                                   : UTF-8
Идентификатор кодека                     : S_TEXT/UTF8
Идентификатор кодека/Информация          : UTF-8 Plain Text
Продолжительность                        : 2 с. 85 мс.
Битрейт                                  : 356 бит/сек
ElementCount                             : 2
Размер потока                            : 93,0 байт (0%)
Заголовок                                : Forced
Язык                                     : Russian
Default                                  : Да
Forced                                   : Нет
Текст #2
Идентификатор                            : 4
Формат                                   : UTF-8
Идентификатор кодека                     : S_TEXT/UTF8
Идентификатор кодека/Информация          : UTF-8 Plain Text
Продолжительность                        : 1 ч. 34 м.
Битрейт                                  : 94 бит/сек
ElementCount                             : 1168
Размер потока                            : 65,7 Кбайт (0%)
Язык                                     : Russian
Default                                  : Нет
Forced                                   : Нет
Текст #3
Идентификатор                            : 7
Формат                                   : UTF-8
Идентификатор кодека                     : S_TEXT/UTF8
Идентификатор кодека/Информация          : UTF-8 Plain Text
Продолжительность                        : 1 ч. 38 м.
Битрейт                                  : 68 бит/сек
ElementCount                             : 1444
Размер потока                            : 49,6 Кбайт (0%)
Язык                                     : English
Default                                  : Нет
Forced                                   : Нет
Текст #4
Идентификатор                            : 8
Формат                                   : UTF-8
Идентификатор кодека                     : S_TEXT/UTF8
Идентификатор кодека/Информация          : UTF-8 Plain Text
Продолжительность                        : 1 ч. 38 м.
Битрейт                                  : 77 бит/сек
ElementCount                             : 1724
Размер потока                            : 55,9 Кбайт (0%)
Заголовок                                : SDH
Язык                                     : English
Default                                  : Нет
Forced                                   : Нет
Текст #5
Идентификатор                            : 9
Формат                                   : UTF-8
Идентификатор кодека                     : S_TEXT/UTF8
Идентификатор кодека/Информация          : UTF-8 Plain Text
Продолжительность                        : 1 ч. 38 м.
Битрейт                                  : 144 бит/сек
ElementCount                             : 1724
Размер потока                            : 104 Кбайт (0%)
Заголовок                                : SDH Colored
Язык                                     : English
Default                                  : Нет
Forced                                   : Нет
Меню
00:00:00.000                             : en:Chapter 1
00:06:40.191                             : en:Chapter 2
00:08:41.520                             : en:Chapter 3
00:11:13.589                             : en:Chapter 4
00:14:20.317                             : en:Chapter 5
00:17:06.942                             : en:Chapter 6
00:18:20.932                             : en:Chapter 7
00:22:05.991                             : en:Chapter 8
00:24:19.958                             : en:Chapter 9
00:27:44.829                             : en:Chapter 10
00:29:07.912                             : en:Chapter 11
00:32:15.308                             : en:Chapter 12
00:35:18.407                             : en:Chapter 13
00:41:25.524                             : en:Chapter 14
00:47:04.696                             : en:Chapter 15
00:50:54.175                             : en:Chapter 16
00:54:23.885                             : en:Chapter 17
00:56:45.026                             : en:Chapter 18
01:01:42.615                             : en:Chapter 19
01:03:28.137                             : en:Chapter 20
01:08:58.216                             : en:Chapter 21
01:15:17.262                             : en:Chapter 22
01:18:56.773                             : en:Chapter 23
01:21:31.761                             : en:Chapter 24
01:24:31.816                             : en:Chapter 25
01:28:23.464                             : en:Chapter 26
01:33:14.755                             : en:Chapter 27
01:36:10.472                             : en:Chapter 28

Miniatyura

LAVHALAR
Profil ShX

MRLG ®

Jins:
Yigit
Staj:
1 yil 5 oy
Xabarlar:
542
Taqiq:

O'rtoqlar, bu yaxshi multfilm, o'rnak olsa bo'ladigan joyi bor. O'tganlarni eslab turish kerakligi, o'tib ketgan ajdodlarimiz ruhlari shod bo'lishlari uchun duolar o'qib eslab turishimiz haqida ishlangan ajoyib multfilm. Tavsiya qilaman.

Mavzu yaratish 31-Dek-2018 22:36 (7 soat o‘tgach)

Iqitibos

Profil ShX

Anvar26

Jins:
Yigit
Staj:
3 oy 16 kun
Xabarlar:
17
Taqiq:

Raxmat

Mavzu yaratish 01-Yan-2019 11:39 (13 soat o‘tgach)

Iqitibos

Profil ShX
Xabarlarni ko‘rsatish:    

Hozirgi vaqt: 23-Yan 02:50

Vaqtlar farqi: UTC + 5



Siz mavzu yaratishingiz mumkin emas
Siz xabarlarga javob qaytarishingiz mumkin emas
Siz o‘z xabarlaringizni tahrirlashingiz mumkin emas
Siz o‘z xabarlaringizni o‘chirishingiz mumkin emas
Siz so‘rovlarda ovoz berishingiz mumkin emas
Siz xabalarga fayllarni biriktirishingiz mumkin emas
Siz fayllarni ko‘chirishingiz mumkin emas