˂
˃
Tarqatmalar statistikasi
Yoʻq
 
     
 
 

Gr@nd ®

Jins:
Yigit
Staj:
1 yil 1 oy
Xabarlar:
158

Qayerdan: Jizzax Forish

Taqiq:

-Kolovrat afsonas | Легенда о Коловрате- -Davlat: Rossiya
Janr: Tarixiy, Jangari, fentazya
Chiqqan yili: 2017
Davomiyligi: 01:53:03-Tarjima: Professional (dublyaj qilingan)O'zbek tilida-Rejissiyor: Djanik Fayziеv , Ivan Shurxovеtskiy-Rollarda: Ilya Malakov (Еvpatiy Kolovrat), Alеksandr Soy (Xan Bato`y), Alеksandr Ilin ml. (Karkun), Yuliya Xlo`nina (Lada), TimofеyTribuntsеv (Zaxar), Alеksеy Sеrеbryakov (Knyaz Yuriy), Igor Savochkin (Ratmir), Polina Chеrno`shova (Nastya), Ilya Antonеnko(knyajich Fyodor), Gеorgiy Pitsxеlauri (Xostovrul), Olga Drozdova (Agrafеna), Mariya Fomina (knyajna Еvpraksiya)-Tavsif: XIII asr. Rus ajralib turibdi va Oltin O'rda Batu xoni oldida tiz cho'kadi. Shaharlarni qirib yurish va Rossiyani qon bilan to'kib solish, bosqinchilar jiddiy qarshiliklarga duch kelmaydi, va faqat bitta jangchi ularga qarshi kurashmoqda. Yosh Ryazan knyazi Evpati Kolovrat o'z sevgisini va vatanini qasd qilish uchun jasur jonlarni ajralib turadi. Uning jasorati hatto Batu'yu hayratda qoldiradi va uning ismi abadiy xalqlar xotirasida qoladi.-Videoning sifati: WEB-DL
Format: MKV-Video: MPEG4 Video (H264) 1920x806 25fps 4 610 Kbps
Audio: Dolby AC3 48000Hz / 6ch / 448 kbps Rus
Audio: MP3 48000Hz / 2ch / 128kbps Uzb
-

MediaInfo

General
Unique ID : 213095568316713910463860267754986804851 (0xA050B6AEBC0AF80DA1B57B07FF521673)
Format : Matroska
Format version : Version 4 / Version 2
File size : 4.13 GiB
Duration : 1h 53mn
Overall bit rate : 5 226 Kbps
Movie name : Xusan_Gr@nd
Encoded date : UTC 2018-02-18 08:07:42
Writing application : mkvmerge v6.8.0 ('Theme for Great Cities') 64bit built on Mar 2 2014 21:34:26
Writing library : libebml v1.3.0 + libmatroska v1.4.1
Video
ID : 1
Format : AVC
Format/Info : Advanced Video Codec
Format profile : High@L4.0
Format settings, CABAC : Yes
Format settings, ReFrames : 5 frames
Codec ID : V_MPEG4/ISO/AVC
Duration : 1h 53mn
Bit rate : 4 610 Kbps
Width : 1 920 pixels
Height : 806 pixels
Display aspect ratio : 2.40:1
Frame rate : 25.000 fps
Color space : YUV
Chroma subsampling : 4:2:0
Bit depth : 8 bits
Scan type : Progressive
Bits/(Pixel*Frame) : 0.119
Stream size : 3.64 GiB (88%)
Title : Legenda.o.Kovovrate.2017.O.WEB-DL.1O8Op
Language : English
Default : Yes
Forced : No
Color primaries : BT.709-5, BT.1361, IEC 61966-2-4, SMPTE RP177
Transfer characteristics : BT.709-5, BT.1361
Matrix coefficients : BT.709-5, BT.1361, IEC 61966-2-4 709, SMPTE RP177
Audio #1
ID : 2
Format : AC-3
Format/Info : Audio Coding 3
Mode extension : CM (complete main)
Format settings, Endianness : Big
Codec ID : A_AC3
Duration : 1h 53mn
Bit rate mode : Constant
Bit rate : 384 Kbps
Channel(s) : 6 channels
Channel positions : Front: L C R, Side: L R, LFE
Sampling rate : 48.0 KHz
Bit depth : 16 bits
Compression mode : Lossy
Stream size : 311 MiB (7%)
Title : iTunes
Language : Russian
Default : Yes
Forced : No
Audio #2
ID : 3
Format : MPEG Audio
Format version : Version 1
Format profile : Layer 3
Mode : Joint stereo
Mode extension : MS Stereo
Codec ID : A_MPEG/L3
Codec ID/Hint : MP3
Duration : 1h 53mn
Bit rate mode : Constant
Bit rate : 128 Kbps
Channel(s) : 2 channels
Sampling rate : 44.1 KHz
Compression mode : Lossy
Stream size : 104 MiB (2%)
Title : Xusan_Gr@nd
Language : Uzbek
Default : No
Forced : No
Profil ShX

Striker

Jins:
Yigit
Staj:
1 yil 3 oy
Xabarlar:
37
Taqiq:

E QOYIL

Mavzu yaratish 19-Fev-2018 22:54 (8 daqiqa o‘tgach)

Iqitibos

Profil ShX

Frozen

Jins:
Yigit
Staj:
1 yil 2 oy
Xabarlar:
58

Qayerdan: Toshkent, Navoi

Taqiq:

Ishlarizga Omad

Mavzu yaratish 19-Fev-2018 23:22 (28 daqiqa o‘tgach)

Iqitibos

Profil ShX
Xabarlarni ko‘rsatish:    

Hozirgi vaqt: 17-Noy 17:53

Vaqtlar farqi: UTC + 5



Siz mavzu yaratishingiz mumkin emas
Siz xabarlarga javob qaytarishingiz mumkin emas
Siz o‘z xabarlaringizni tahrirlashingiz mumkin emas
Siz o‘z xabarlaringizni o‘chirishingiz mumkin emas
Siz so‘rovlarda ovoz berishingiz mumkin emas
Siz xabalarga fayllarni biriktirishingiz mumkin emas
Siz fayllarni ko‘chirishingiz mumkin emas