Tarqatmalar statistikasi
Ko‘chirmoqdaman: [ 8 ]
Ko‘chirib bo‘ldim: [ 23 ]
 
     
 
 

MRLG ®

Jins:
Yigit
Staj:
11 oy 6 kun
Xabarlar:
379
Taqiq:

Ko'rinmas mehmon-««Every story has two sides. The truth, only one»»- -
Chiqqan yili: 2016
Davlat: Ispaniya
Janr: triller, kriminal, detektiv
Davomiyligi: 01:46:12
Tarjima: Professional ko'p ovozli (Rus va O'zbek tillarida) - Rejissyor: Oriol Paolo / Oriol Paulo- Rollarda:
-Mario Kasas, Ana Vaxener, Xose Koronado, Barbara Lenni, Fransesk Orelya (Félix Leiva), Pako Tous (Conductor), David Selvas (Bruno), Iñigo Gastesi (Daniel Garrido), San Yelamos (Sonia), Manel Dueso (Inspector Milán), Blanka Martines (Virginia Goodman Real), Pere T. Braso (Agente 1)- Tavsif:
Adriana Doria yosh tadbirkor o'z ma'shuqasini o'ldirganlikda ayblashadi va u eng qiyin vaziyatlarni yengish uchun yordam beradigan mamlakatda eng yaxshi mutaxassislardan biri Virjiniya Gudman xizmatidan foydalanishga qaror qabul qiladi. Adrian uy qamog'ida ushlab turiladi va ertaga sud majlisi o'tkaziladi, shuning uchun ham kechqurun Virjiniya unga eng yaxshi mudofaa strategiyasini taqdim etish uchun keladi. Uning uchun bu oxirgi ish va u yutqazishni istamaydi.-Dunyodagi primierasi: 2016 - yil 23 - sentyabr
КиноПоиск: 7.593 (19 983)
IMDb: 8.10 (39 089)- Sifat: BDRip
Format: AVI
Video: XviD, 720x304 (2.35:1), 1511 kbps, 24 fps, 0,288 bpp
Audio №1: AC3 / 5.1 / 48 kHz / 448 kbps / {AlexFilm} - Rus tilida
Audio №2: MP3 / 2.0 / 48 kHz / 128 kbps / {Sevimli TV} - O'zbek tilida-

Media Info

General
Complete name                            : D:\Кино\Tarjima filmlar\Ko'rinmas Mehmon (2016 - BDRip) AlexFilm+SevimliTV (MRLG).avi
Format                                   : AVI
Format/Info                              : Audio Video Interleave
File size                                : 1.56 GiB
Duration                                 : 1 h 46 min
Overall bit rate                         : 2 101 kb/s
Writing application                      : VirtualDubMod 1.5.10.3 (build 2550/release)
Writing library                          : VirtualDubMod build 2550/release
Video
ID                                       : 0
Format                                   : MPEG-4 Visual
Format profile                           : Advanced Simple@L5
Format settings, BVOP                    : 1
Format settings, QPel                    : No
Format settings, GMC                     : No warppoints
Format settings, Matrix                  : Custom
Codec ID                                 : XVID
Codec ID/Hint                            : XviD
Duration                                 : 1 h 46 min
Bit rate                                 : 1 512 kb/s
Width                                    : 720 pixels
Height                                   : 304 pixels
Display aspect ratio                     : 2.35:1
Frame rate                               : 24.000 FPS
Color space                              : YUV
Chroma subsampling                       : 4:2:0
Bit depth                                : 8 bits
Scan type                                : Progressive
Compression mode                         : Lossy
Bits/(Pixel*Frame)                       : 0.288
Stream size                              : 1.12 GiB (72%)
Writing library                          : XviD 73
Audio #1
ID                                       : 1
Format                                   : AC-3
Format/Info                              : Audio Coding 3
Mode extension                           : CM (complete main)
Format settings, Endianness              : Big
Codec ID                                 : 2000
Duration                                 : 1 h 46 min
Bit rate mode                            : Constant
Bit rate                                 : 448 kb/s
Channel(s)                               : 6 channels
Channel positions                        : Front: L C R, Side: L R, LFE
Sampling rate                            : 48.0 kHz
Frame rate                               : 31.250 FPS (1536 spf)
Compression mode                         : Lossy
Stream size                              : 340 MiB (21%)
Alignment                                : Split accross interleaves
Interleave, duration                     : 42  ms (1.00 video frame)
Interleave, preload duration             : 500  ms
Audio #2
ID                                       : 2
Format                                   : MPEG Audio
Format version                           : Version 1
Format profile                           : Layer 3
Mode                                     : Joint stereo
Mode extension                           : MS Stereo
Codec ID                                 : 55
Codec ID/Hint                            : MP3
Duration                                 : 1 h 46 min
Bit rate mode                            : Constant
Bit rate                                 : 128 kb/s
Channel(s)                               : 2 channels
Sampling rate                            : 48.0 kHz
Compression mode                         : Lossy
Stream size                              : 97.2 MiB (6%)
Alignment                                : Aligned on interleaves
Interleave, duration                     : 42  ms (1.00 video frame)
Interleave, preload duration             : 504  ms
Writing library                          : LAME3.100Є

Miniatyura

SKRINSHOTLAR
- © Template by MRLG


So‘ngi marta tahrirlandi: MRLG (2018-05-27 03:37), Jami tahrirlangan 1 marta
Profil ShX

N.U.R.I.K.B.E.K

Jins:
Yigit
Staj:
8 oy 16 kun
Xabarlar:
139

Qayerdan: Jizzax. Paxtakor

Taqiq:

kino zo'rekan tafsiya qilaman

Mavzu yaratish 25-Fev-2018 20:47 (16 kun o‘tgach)

Iqitibos

Profil ShX
Xabarlarni ko‘rsatish:    

Hozirgi vaqt: 22-Iyul 19:17

Vaqtlar farqi: UTC + 5



Siz mavzu yaratishingiz mumkin emas
Siz xabarlarga javob qaytarishingiz mumkin emas
Siz o‘z xabarlaringizni tahrirlashingiz mumkin emas
Siz o‘z xabarlaringizni o‘chirishingiz mumkin emas
Siz so‘rovlarda ovoz berishingiz mumkin emas
Siz xabalarga fayllarni biriktirishingiz mumkin emas
Siz fayllarni ko‘chirishingiz mumkin emas