Tarqatmalar statistikasi
Yoʻq
 
     
 
 

Gr@nd ®

Jins:
Yigit
Staj:
11 oy 27 kun
Xabarlar:
150

Qayerdan: Jizzax Forish

Taqiq:

Kreyser | Крейсер | USS Indianapolis: Men of Courage- -Davlat: AQSH
Janr: Jangari
Chiqqan yili: 2016
Davomiyligi: 02:04:35-Tarjima: Professional (dublyaj qilingan) O'zbek tilida-Rejissiyor: Mario Van Piblz-Rollarda: Nikolas Kеydj, Tom Sayzmor, Tomas Djеyn, Mett Lantеr, Vеronika Rozati, Koudi Uokеr, Brayan Presli, Emili Tеnnant, Kallard Xarris, Emili Mari Palmеr-Описание: Ikkinchi jahon urushi oxirida, Indianapolis kreyseri eng sirli missiyani amalga oshirdi: Xirosima va Nagasaki uchun Filippinda joylashgan AQSh dengiz bazasiga atom bombalari urush boshkalarini etkazib berdi. Maxfiylik tufayli, bu buyruq kemani kuzatib borish uchun eskort qilishga imkon bermaydi, kema aslida dushman dengiz osti kemalariga qarshi himoyasizdir. Vazifalar bajarildi, yuk yetkazildi, lekin "Indianapolis" yo'lida Yaponiya torpedalarini to'g'ridan-to'g'ri urish natijasida pastga tushadi. Tirik qolgan to'rt kun Filippin dengizi to'lqinlari bo'ylab yuribdi, bu qon to'kilgan qushlar bilan to'lib-toshgan. Ekipajning faqatgina to'rtinchi qismi, shu jumladan kapitan, omon qolish uchun harakat qilmoqda, yuzlab odamlar suvga cho'kdi, tashnalikda vafot etdi yoki akula og'izlarida vafot etdi. Gunohlarini yashirish uchun qo'mondon kema hayoti va ekipaji uchun jangda qahramonlarcha kurashgan kapitan Charlz Makvayga sudga taslim bo'ladi.-Videoning sifati: BDRip-AVC
Формат видео: MKV-Video: MPEG4 Video (H264) 1920x800 25fps 4 423 Kbps
Audio: Dolby AC3 48000Hz 6ch Rus
Audio: MP3 48000Hz 2ch 128kbps Uzb
-

MediaInfo

General
Unique ID : 212399797177439146818868796383183472381 (0x9FCAB684528CF3B889EAE055AD9386FD)
Format : Matroska
Format version : Version 4 / Version 2
File size : 4.38 GiB
Duration : 2h 4mn
Overall bit rate : 5 036 Kbps
Movie name : Xusan_Gr@nd
Encoded date : UTC 2017-01-02 14:39:27
Writing application : mkvmerge v6.8.0 ('Theme for Great Cities') 64bit built on Mar 2 2014 21:34:26
Writing library : libebml v1.3.0 + libmatroska v1.4.1
Video
ID : 1
Format : AVC
Format/Info : Advanced Video Codec
Format profile : High@L4.0
Format settings, CABAC : Yes
Format settings, ReFrames : 5 frames
Codec ID : V_MPEG4/ISO/AVC
Duration : 2h 4mn
Bit rate : 4 423 Kbps
Width : 1 920 pixels
Height : 800 pixels
Display aspect ratio : 2.40:1
Frame rate : 25.000 fps
Color space : YUV
Chroma subsampling : 4:2:0
Bit depth : 8 bits
Scan type : Progressive
Bits/(Pixel*Frame) : 0.115
Stream size : 3.85 GiB (88%)
Language : Russian
Default : Yes
Forced : No
Color primaries : BT.709-5, BT.1361, IEC 61966-2-4, SMPTE RP177
Transfer characteristics : BT.709-5, BT.1361
Matrix coefficients : BT.709-5, BT.1361, IEC 61966-2-4 709, SMPTE RP177
Audio #1
ID : 2
Format : AC-3
Format/Info : Audio Coding 3
Mode extension : CM (complete main)
Format settings, Endianness : Big
Codec ID : A_AC3
Duration : 2h 4mn
Bit rate mode : Constant
Bit rate : 384 Kbps
Channel(s) : 6 channels
Channel positions : Front: L C R, Side: L R, LFE
Sampling rate : 48.0 KHz
Bit depth : 16 bits
Compression mode : Lossy
Stream size : 342 MiB (8%)
Language : Russian
Default : Yes
Forced : No
Audio #2
ID : 3
Format : MPEG Audio
Format version : Version 1
Format profile : Layer 3
Mode : Joint stereo
Mode extension : MS Stereo
Codec ID : A_MPEG/L3
Codec ID/Hint : MP3
Duration : 2h 4mn
Bit rate mode : Constant
Bit rate : 128 Kbps
Channel(s) : 2 channels
Sampling rate : 44.1 KHz
Compression mode : Lossy
Stream size : 114 MiB (3%)
Title : Xusan_Gr@nd
Writing library : LAME3.98.2
Language : Uzbek
Default : No
Forced : No
--
Profil ShX
Xabarlarni ko‘rsatish:    

Hozirgi vaqt: 23-Sen 11:59

Vaqtlar farqi: UTC + 5



Siz mavzu yaratishingiz mumkin emas
Siz xabarlarga javob qaytarishingiz mumkin emas
Siz o‘z xabarlaringizni tahrirlashingiz mumkin emas
Siz o‘z xabarlaringizni o‘chirishingiz mumkin emas
Siz so‘rovlarda ovoz berishingiz mumkin emas
Siz xabalarga fayllarni biriktirishingiz mumkin emas
Siz fayllarni ko‘chirishingiz mumkin emas