MRLG ®

Jins:
Yigit
Staj:
11 oy 6 kun
Xabarlar:
379
Taqiq:

-Krid: Rokki merosi | Крид: Наследие Рокки | Creed- FILM HAQIDA MA`LUMOT
Chiqqan yili: 2015
Davlat: AQSH
Janri: Drama, Sport
Davomiyligi: 02:13:10
Tarjima: Dublyaj (Professional kadr ortidan) Kinoteatr-Rejissiyor: Rayan Kugler / Ryan Coogler
Rollarda
Maykl B. Djordan, Silvestr Stallone, Tessa Tompson, Filisiya Rashad, Andre Uord, Toni Belyu, Richi Koster, Djeykob ’Stich’ Dyuran, Grem MakTavish, Malik Bazille-Tavsif
В центре внимания сын Аполло Крида — первого серьезного соперника Рокки Бальбоа на ринге, впоследствии ставшего лучшим другом героя. Молодой человек не испытывает никакой страсти к боксу, впрочем, и его семья не желает видеть парня в ипостаси бойца. Тем не менее, талант отца в какой-то момент проявляется и в Криде-младшем, и юноша отправляется на поиски наставника, коим для него в итоге становится постаревший Рокки, тоже не слишком жаждущий возвращаться к старым делам. Даже в качестве тренера.-Qo`shimcha ma`lumotlar
-Sifat: BDRip
Format: AVI
Video: Xvid / 720x304 / 23.976fps / 1370kbps
Аудио #1: MP3 / 48000Hz / 2ch / 128kbps / O`zbek tilida
Аудио #2: AC3 / 2ch / 48 kHz / 192 kbps / Rus tilida-

MI

Общее
Полное имя                               : D:\Кино\O'zbek Tarjima filmlari\Krid.Rokki merosi.BDRip.2015\Kird.Rokki merosi.2015.BDRip_[MRLG].avi
Формат                                   : AVI
Формат/Информация                        : Audio Video Interleave
Размер файла                             : 1,59 Гбайт
Продолжительность                        : 2 ч. 13 м.
Общий поток                              : 1705 Кбит/сек
Название фильма                          : Krid.Nasledie.Rokki.2015.D.BDRip.1.46Gb_by_Twi7ter
Режиссёр                                 : Twi7ter
Жанр                                     : Drama/Sport
Программа кодирования                    : VirtualDubMod 1.5.10.3 | www.virtualdub-fr.org || (build 2550/release)
Библиотека кодирования                   : VirtualDubMod build 2550/release
Формат оригинала/Имя                     : Movie
Видео
Идентификатор                            : 0
Формат                                   : MPEG-4 Visual
Профиль формата                          : Advanced Simple@L5
Параметр BVOP формата                    : 2
Параметр QPel формата                    : Нет
Параметр GMC формата                     : Без точки перехода
Параметр матрицы формата                 : Выборочная
Идентификатор кодека                     : XVID
Идентификатор кодека/Подсказка           : XviD
Продолжительность                        : 2 ч. 13 м.
Битрейт                                  : 1371 Кбит/сек
Ширина                                   : 720 пикселей
Высота                                   : 304 пикселя
Соотношение сторон                       : 2,35:1
Частота кадров                           : 23,976 (24000/1001) кадра/сек
Цветовое пространство                    : YUV
Субдискретизация насыщенности            : 4:2:0
Битовая глубина                          : 8 бит
Тип развёртки                            : Прогрессивная
Метод сжатия                             : С потерями
Бит/(Пиксели*Кадры)                      : 0.261
Размер потока                            : 1,28 Гбайт (80%)
Библиотека кодирования                   : XviD 73
Аудио #1
Идентификатор                            : 1
Формат                                   : MPEG Audio
Версия формата                           : Version 1
Профиль формата                          : Layer 3
Идентификатор кодека                     : 55
Идентификатор кодека/Подсказка           : MP3
Продолжительность                        : 2 ч. 13 м.
Вид битрейта                             : Постоянный
Битрейт                                  : 128 Кбит/сек
Каналы                                   : 2 канала
Частота                                  : 48,0 КГц
Метод сжатия                             : С потерями
Размер потока                            : 122 Мбайт (8%)
Выравнивание                             : Соединение по промежуткам
Продолжительность промежутка             : 42  мс. (1,00 видеокадр)
Время предзагрузки промежутка            : 504  мс.
Библиотека кодирования                   : LAME3.99r
Настройки программы                      : -m s -V 4 -q 0 -lowpass 17 -b 128
Аудио #2
Идентификатор                            : 2
Формат                                   : AC-3
Формат/Информация                        : Audio Coding 3
Параметр Endianness формата              : Big
Идентификатор кодека                     : 2000
Продолжительность                        : 2 ч. 13 м.
Вид битрейта                             : Постоянный
Битрейт                                  : 192 Кбит/сек
Каналы                                   : 2 канала
Расположение каналов                     : Front: L R
Частота                                  : 48,0 КГц
Частота кадров                           : 31,250 кадров/сек (1536 SPF)
Битовая глубина                          : 16 бит
Метод сжатия                             : С потерями
Размер потока                            : 183 Мбайт (11%)
Выравнивание                             : Соединение по промежуткам
Продолжительность промежутка             : 42  мс. (1,00 видеокадр)
Время предзагрузки промежутка            : 512  мс.
ServiceKind/String                       : Complete Main

Miniatyura

SKRINSHOTLAR
Profil ShX
Xabarlarni ko‘rsatish:    

Hozirgi vaqt: 23-Iyul 03:25

Vaqtlar farqi: UTC + 5



Siz mavzu yaratishingiz mumkin emas
Siz xabarlarga javob qaytarishingiz mumkin emas
Siz o‘z xabarlaringizni tahrirlashingiz mumkin emas
Siz o‘z xabarlaringizni o‘chirishingiz mumkin emas
Siz so‘rovlarda ovoz berishingiz mumkin emas
Siz xabalarga fayllarni biriktirishingiz mumkin emas
Siz fayllarni ko‘chirishingiz mumkin emas