˂
˃
Tarqatmalar statistikasi
Ko‘chirmoqdaman: [ 2 ]
Ko‘chirib bo‘ldim: [ 10 ]
 
     
 
 

UmarShoh ®

Jins:
Yigit
Staj:
9 oy 12 kun
Xabarlar:
371
Taqiq:

-Krudslar Oilasi | Семейка Крудс | The Croods- -Chiqqan yili: 2013
Davlat: AQSH
Janr: Multfilm, Komediya, Oilaviy.
Davomiyligi: 01:38:37
Tarjima: Professional (dublyaj qilingan) | Itunes
Tarjima 2: Professional (dublyaj qilingan)| Yoshlar
- -Rejissyorlar: Kirk de Mikko, Kris Sanders.-Rollarni ovozlashtirganlar: Nikolas Keydj, Emma Stoun, Rayan Reynolds, Ketrin Kiner, Kloris Lichmen, Klark Dyuk, Kris Sanders, Rendi Tom.-Ssenariy mualliflari: Kris Sanders, Kirk de Mikko, Djon Kliz. Prodyuserlar: Kristian Belson, Djeyn Xartvell. Operator:Yong Duk Jun.Bastakor:Alan Silvestri.Montaj:Darren T.Xolm.Rassomlar:Kristof Lotrett, Pol Dunkan, Dominik Lui. - - Tavsif: Zilzila o'ta qadimgi bir oilaning uyini vayron qildi.
Endi Krudslar o'zlariga yangi boshpana qidirishga majbur.
Atrofda esa yangi xavfli dunyo! Ko'chmanchi yosh yigit Maloy ularga yordamga keladi.
Oila boshlig'i Grugning eskicha qarashlari va Maloyning ilg'or fikrlari bir-biriga zid kelib,
ko'plab kelishmovchiliklarni keltirib chiqaradi. Ammo, ular faqatgina birgalikda omon qolishlari
va o'z maqsadlariga yetishishlari mumkin...
- -Videoning sifati: BDRip 1080p Hevc 10bit
Video format: MKV
Video: HEVC, 2505kbps, 1920x816, 23.976 FPS
Audio: DTS, 6 ch, 1509kbps | Ruscha
Audio 2: AAC, 8 ch, 410kbps | Inglizcha
Audio 3: MP3, 44100Hz 2ch, 160kbps | O'zbekcha (Yoshlar)
Subtitrlar: Inglizcha, Ruscha, Fransuzcha, Arabcha, ...
-

Media Info

General
Unique ID : 174401164518806052941108236589256887335 (0x8334714838F358CDC5A2382B976F4C27)
Complete name : D:\Media\Multfilmlar\Multfilmlar\003) The Croods [ 2013 BDRip 1080p x265 ] O'zbek tilida.mkv
Format : Matroska
Format version : Version 4 / Version 2
File size : 3.18 GiB
Duration : 1 h 38 min
Overall bit rate : 4 615 kb/s
Movie name : The Croods
Encoded date : UTC 2018-09-27 03:46:52
Writing application : mkvmerge v26.0.0 ('In The Game') 64-bit
Writing library : libebml v1.3.6 + libmatroska v1.4.9
Video
ID : 1
Format : HEVC
Format/Info : High Efficiency Video Coding
Format profile : Main 10@L4@Main
Codec ID : V_MPEGH/ISO/HEVC
Duration : 1 h 38 min
Bit rate : 2 505 kb/s
Width : 1 920 pixels
Height : 816 pixels
Display aspect ratio : 2.35:1
Frame rate mode : Constant
Frame rate : 23.976 (24000/1001) FPS
Color space : YUV
Chroma subsampling : 4:2:0
Bit depth : 10 bits
Bits/(Pixel*Frame) : 0.067
Stream size : 1.73 GiB (54%)
Writing library : x265 2.1+59-a895b6344a82:[Windows][GCC 6.2.0][64 bit] 10bit
Encoding settings : cpuid=1173503 / frame-threads=3 / numa-pools=8 / wpp / no-pmode / no-pme / no-psnr / no-ssim / log-level=2 / input-csp=1 / input-res=1920x816 / interlace=0 / total-frames=141864 / level-idc=0 / high-tier=1 / uhd-bd=0 / ref=3 / no-allow-non-conformance / no-repeat-headers / annexb / no-aud / no-hrd / info / hash=0 / no-temporal-layers / open-gop / min-keyint=23 / keyint=250 / bframes=4 / b-adapt=2 / b-pyramid / bframe-bias=0 / rc-lookahead=20 / lookahead-slices=5 / scenecut=40 / no-intra-refresh / ctu=64 / min-cu-size=8 / no-rect / no-amp / max-tu-size=32 / tu-inter-depth=1 / tu-intra-depth=1 / limit-tu=0 / rdoq-level=0 / signhide / no-tskip / nr-intra=0 / nr-inter=0 / no-constrained-intra / strong-intra-smoothing / max-merge=2 / limit-refs=3 / no-limit-modes / me=1 / subme=2 / merange=57 / temporal-mvp / weightp / no-weightb / no-analyze-src-pics / deblock=0:0 / sao / no-sao-non-deblock / rd=3 / no-early-skip / rskip / no-fast-intra / no-tskip-fast / no-cu-lossless / no-b-intra / rdpenalty=0 / psy-rd=2.00 / psy-rdoq=0.00 / no-rd-refine / analysis-mode=0 / no-lossless / cbqpoffs=0 / crqpoffs=0 / rc=abr / bitrate=2504 / qcomp=0.60 / qpstep=4 / stats-write=0 / stats-read=2 / stats-file=\\STING\Encodes\Rucker\The / Croods / cplxblur=20.0 / qblur=0.5 / ipratio=1.40 / pbratio=1.30 / aq-mode=2 / aq-strength=1.00 / cutree / zone-count=0 / no-strict-cbr / qg-size=32 / no-rc-grain / qpmax=69 / qpmin=0 / sar=0 / overscan=0 / videoformat=5 / range=0 / colorprim=2 / transfer=2 / colormatrix=2 / chromaloc=0 / display-window=0 / max-cll=0,0 / min-luma=0 / max-luma=1023 / log2-max-poc-lsb=8 / vui-timing-info / vui-hrd-info / slices=1 / opt-qp-pps / opt-ref-list-length-pps / no-multi-pass-opt-rps / scenecut-bias=0.05
Default : Yes
Forced : No
Audio #1
ID : 2
Format : AAC LC
Format/Info : Advanced Audio Codec Low Complexity
Codec ID : A_AAC-2
Duration : 1 h 38 min
Bit rate : 410 kb/s
Channel(s) : 8 channels
Channel layout : C L R Ls Rs Rls Rb LFE
Sampling rate : 48.0 kHz
Frame rate : 46.875 FPS (1024 SPF)
Compression mode : Lossy
Delay relative to video : 20 ms
Stream size : 289 MiB (9%)
Language : English
Default : Yes
Forced : No
Audio #2
ID : 11
Format : DTS
Format/Info : Digital Theater Systems
Codec ID : A_DTS
Duration : 1 h 38 min
Bit rate mode : Constant
Bit rate : 1 509 kb/s
Channel(s) : 6 channels
Channel layout : C L R Ls Rs LFE
Sampling rate : 48.0 kHz
Frame rate : 93.750 FPS (512 SPF)
Bit depth : 16 bits
Compression mode : Lossy
Stream size : 1.04 GiB (33%)
Title : Дублированный
Language : Russian
Default : No
Forced : No
Audio #3
ID : 12
Format : MPEG Audio
Format version : Version 1
Format profile : Layer 3
Format settings : Joint stereo / MS Stereo
Codec ID : A_MPEG/L3
Codec ID/Hint : MP3
Duration : 1 h 38 min
Bit rate mode : Constant
Bit rate : 160 kb/s
Channel(s) : 2 channels
Sampling rate : 44.1 kHz
Frame rate : 38.281 FPS (1152 SPF)
Compression mode : Lossy
Stream size : 113 MiB (3%)
Title : NTT (UmarShoh_FL)
Writing library : LAME3.99.5
Language : Uzbek
Default : No
Forced : No
Text #1
ID : 3
Format : VobSub
Muxing mode : zlib
Codec ID : S_VOBSUB
Codec ID/Info : Picture based subtitle format used on DVDs
Duration : 1 h 28 min
Bit rate : 6 808 b/s
Count of elements : 1021
Stream size : 4.33 MiB (0%)
Language : English
Default : No
Forced : No
Text #2
ID : 4
Format : VobSub
Muxing mode : zlib
Codec ID : S_VOBSUB
Codec ID/Info : Picture based subtitle format used on DVDs
Duration : 1 h 37 min
Bit rate : 5 753 b/s
Count of elements : 953
Stream size : 4.01 MiB (0%)
Language : French
Default : No
Forced : No
Text #3
ID : 5
Format : VobSub
Muxing mode : zlib
Codec ID : S_VOBSUB
Codec ID/Info : Picture based subtitle format used on DVDs
Duration : 1 h 37 min
Bit rate : 6 069 b/s
Count of elements : 1029
Stream size : 4.23 MiB (0%)
Language : Spanish
Default : No
Forced : No
Text #4
ID : 6
Format : VobSub
Muxing mode : zlib
Codec ID : S_VOBSUB
Codec ID/Info : Picture based subtitle format used on DVDs
Duration : 1 h 37 min
Bit rate : 5 363 b/s
Count of elements : 756
Stream size : 3.74 MiB (0%)
Language : Dutch
Default : No
Forced : No
Text #5
ID : 7
Format : VobSub
Muxing mode : zlib
Codec ID : S_VOBSUB
Codec ID/Info : Picture based subtitle format used on DVDs
Duration : 1 h 37 min
Bit rate : 6 239 b/s
Count of elements : 1017
Stream size : 4.35 MiB (0%)
Language : German
Default : No
Forced : No
Text #6
ID : 8
Format : VobSub
Muxing mode : zlib
Codec ID : S_VOBSUB
Codec ID/Info : Picture based subtitle format used on DVDs
Duration : 1 h 37 min
Bit rate : 3 949 b/s
Count of elements : 857
Stream size : 2.75 MiB (0%)
Language : Japanese
Default : No
Forced : No
Text #7
ID : 9
Format : VobSub
Muxing mode : zlib
Codec ID : S_VOBSUB
Codec ID/Info : Picture based subtitle format used on DVDs
Duration : 1 h 37 min
Bit rate : 3 036 b/s
Count of elements : 1044
Stream size : 2.12 MiB (0%)
Language : Arabic
Default : No
Forced : No
Text #8
ID : 10
Format : VobSub
Muxing mode : zlib
Codec ID : S_VOBSUB
Codec ID/Info : Picture based subtitle format used on DVDs
Duration : 1 h 37 min
Bit rate : 6 448 b/s
Count of elements : 1024
Stream size : 4.49 MiB (0%)
Language : Turkish
Default : No
Forced : No
Menu
00:00:00.000 : en:Chapter 01
00:02:35.238 : en:Chapter 02
00:04:51.749 : en:Chapter 03
00:09:01.249 : en:Chapter 04
00:12:21.115 : en:Chapter 05
00:14:05.010 : en:Chapter 06
00:18:33.028 : en:Chapter 07
00:21:56.982 : en:Chapter 08
00:23:24.736 : en:Chapter 09
00:26:49.774 : en:Chapter 10
00:28:37.132 : en:Chapter 11
00:30:25.657 : en:Chapter 12
00:32:48.633 : en:Chapter 13
00:36:03.244 : en:Chapter 14
00:38:33.561 : en:Chapter 15
00:41:34.533 : en:Chapter 16
00:44:38.842 : en:Chapter 17
00:48:03.088 : en:Chapter 18
00:52:10.961 : en:Chapter 19
00:55:17.188 : en:Chapter 20
01:00:15.278 : en:Chapter 21
01:03:58.084 : en:Chapter 22
01:05:48.736 : en:Chapter 23
01:08:44.036 : en:Chapter 24
01:10:47.284 : en:Chapter 25
01:12:37.144 : en:Chapter 26
01:14:01.645 : en:Chapter 27
01:19:48.575 : en:Chapter 28
01:23:09.859 : en:Chapter 29
01:25:17.112 : en:Chapter 30
01:28:04.320 : en:Chapter 31
01:30:02.063 : en:Chapter 32


So‘ngi marta tahrirlandi: UmarShoh (2018-09-27 19:59), Jami tahrirlangan 4 marta
Profil ShX

MRLG

Jins:
Yigit
Staj:
1 yil 4 oy
Xabarlar:
526
Taqiq:

Ko'rishga arziydigan multfilm. Noutbukimda bo'sh joy yo'q. Bo'lmasa ko'chirib olardim :)

Mavzu yaratish 30-Mar-2018 11:18 (40 daqiqa o‘tgach)

Iqitibos

Profil ShX

vuelta

Jins:
Yigit
Staj:
1 yil 4 oy
Xabarlar:
300
Taqiq:

13gb ekan

Mavzu yaratish 30-Mar-2018 11:47 (28 daqiqa o‘tgach)

Iqitibos

Profil ShX

N.U.R.I.K.B.E.K

Jins:
Yigit
Staj:
1 yil 1 oy
Xabarlar:
349

Qayerdan: Jizzax. Paxtakor

Taqiq:

UmarShoh, kichirog'ini taxlang 1gb xam bo'ladi

Mavzu yaratish 30-Mar-2018 13:52 (2 soat 4 daqiqa o‘tgach)

Iqitibos

Profil ShX

UmarShoh ®

Jins:
Yigit
Staj:
9 oy 12 kun
Xabarlar:
371
Taqiq:

N.U.R.I.K.B.E.K, menda faqat shunaqada hammasi !

Mavzu yaratish 30-Mar-2018 13:59 (7 daqiqa o‘tgach)

Iqitibos

Profil ShX

BestBoy

Jins:
Yigit
Staj:
1 yil 2 oy
Xabarlar:
63
Taqiq:

udar chiqipti skrindan bilsa bo'ladi)

Mavzu yaratish 30-Mar-2018 23:33 (9 soat o‘tgach)

Iqitibos

Profil ShX

UmarShoh ®

Jins:
Yigit
Staj:
9 oy 12 kun
Xabarlar:
371
Taqiq:

MRLG, men bu multikni joyini o'zgartirib nomini ham o'zgartirgandim shunga boshqattan torrent faylini yukladim oka tekshirib bering !

Mavzu yaratish 12-Apr-2018 21:12 (12 kun o‘tgach)

Iqitibos

Profil ShX

UmarShoh ®

Jins:
Yigit
Staj:
9 oy 12 kun
Xabarlar:
371
Taqiq:

Reliz hajmi kichyartirilib, Hevc formatga o'zgartirilganligi sababli torrent fayl yangilandi !

Mavzu yaratish 27-Sen-2018 09:04 (5 oy 14 kun o‘tgach)

Iqitibos

Profil ShX

AxeL

Jins:
Yigit
Staj:
9 oy
Xabarlar:
615

Qayerdan: Gronland, Norway

Taqiq:

6235Reliz hajmi kichyartirilib, Hevc formatga o'zgartirilganligi sababli torrent fayl yangilandi !
yuqoridagi posterni almashtiring, begona resursga yo'naltiruvchi link mavjud

Mavzu yaratish 27-Sen-2018 14:46 (5 soat o‘tgach)

Iqitibos

Profil ShX

UmarShoh ®

Jins:
Yigit
Staj:
9 oy 12 kun
Xabarlar:
371
Taqiq:

AxeL, to'g'irlandi !

Mavzu yaratish 27-Sen-2018 20:00 (5 soat o‘tgach)

Iqitibos

Profil ShX

AxeL

Jins:
Yigit
Staj:
9 oy
Xabarlar:
615

Qayerdan: Gronland, Norway

Taqiq:

6239AxeL, to'g'irlandi !
tegishli maqom ham berildi, keyingi ishlarda omad)

Mavzu yaratish 27-Sen-2018 20:29 (28 daqiqa o‘tgach)

Iqitibos

Profil ShX
Xabarlarni ko‘rsatish:    

Hozirgi vaqt: 17-Dek 23:44

Vaqtlar farqi: UTC + 5



Siz mavzu yaratishingiz mumkin emas
Siz xabarlarga javob qaytarishingiz mumkin emas
Siz o‘z xabarlaringizni tahrirlashingiz mumkin emas
Siz o‘z xabarlaringizni o‘chirishingiz mumkin emas
Siz so‘rovlarda ovoz berishingiz mumkin emas
Siz xabalarga fayllarni biriktirishingiz mumkin emas
Siz fayllarni ko‘chirishingiz mumkin emas