Tarqatmalar statistikasi
Yoʻq
 
     
 
 

BoboMUROD ®

Jins:
Ko‘rsatilmagan
Staj:
11 oy 19 kun
Xabarlar:
10
Taqiq:

Kung Fu Quyon / Tu Xia Chuan Qi
Davlat: Xitoy
Janr: Multfilm, sarguzasht, oilaviy
Davomiyligi: 01:32:50
Chiqqan yili: 2015
Tarjima: Профессиональный (дублированный)
Rejissyor: Deyk Dong
Rollarda: Yunvey Xe, Li Xuang
Ma`lumot: Победу в поединке сильнейших бойцов неожиданно одерживает неуклюжий с виду пушистый кролик, лучше других владеющий секретами древнего кунг-фу, после чего становится главным защитником деревни. Однако, не долго ему удается купаться в лучах славы и наслаждаться вниманием поклонников. Злодеи вознамерились выкрасть у кролика магический камень и тем самым лишить его силы. Сможет ли пушистый супергерой защитить деревню и противостоять злодеям без силы волшебного камня?
Качество: DVDRip
Формат: AVI
Видео: Xvid 640x360 25fps 803kbps
Аудио: MP3 44100Hz stereo 128kbps

Подробные технические данные

General
Complete name : D:\KINO\MULTIK\Kung Fu Quyon - Tu Xia Chuan Qi.avi
Format : AVI
Format/Info : Audio Video Interleave
File size : 614 MiB
Duration : 1 h 30 min
Overall bit rate : 944 kb/s
Writing application : MEncoder SVN-r30881(20100311-gcc4.3.3)
Writing library : MPlayer
Video
ID : 0
Format : MPEG-4 Visual
Format profile : Advanced Simple@L5
Format settings, BVOP : 2
Format settings, QPel : No
Format settings, GMC : No warppoints
Format settings, Matrix : Default (H.263)
Codec ID : XVID
Codec ID/Hint : XviD
Duration : 1 h 30 min
Bit rate : 804 kb/s
Width : 640 pixels
Height : 360 pixels
Display aspect ratio : 16:9
Frame rate : 25.000 FPS
Color space : YUV
Chroma subsampling : 4:2:0
Bit depth : 8 bits
Scan type : Progressive
Compression mode : Lossy
Bits/(Pixel*Frame) : 0.140
Stream size : 522 MiB (85%)
Writing library : XviD 1.2.1 (UTC 2008-12-04)
Audio
ID : 1
Format : MPEG Audio
Format version : Version 1
Format profile : Layer 3
Mode : Joint stereo
Mode extension : MS Stereo
Codec ID : 55
Codec ID/Hint : MP3
Duration : 1 h 30 min
Bit rate mode : Constant
Bit rate : 128 kb/s
Channel(s) : 2 channels
Sampling rate : 44.1 kHz
Compression mode : Lossy
Delay relative to video : 40 ms
Stream size : 83.2 MiB (14%)
Alignment : Aligned on interleaves
Interleave, duration : 26 ms (0.65 video frame)
Interleave, preload duration : 522 ms
Writing library : LAME3.98


So‘ngi marta tahrirlandi: BoboMUROD (2017-10-21 11:17), Jami tahrirlangan 1 marta
Profil ShX

Vampire_1987

Jins:
Ko‘rsatilmagan
Staj:
1 yil
Xabarlar:
114
Taqiq:

552
Страна: Xitoy
Жанр: Multfilm, sarguzasht, oilaviy
Продолжительность: 01:32:50
Год выпуска: 2015
Перевод: Профессиональный (дублированный)
Русские субтитры: нет
Режиссёр: Deyk Dong
Роли озвучивали: Yunvey Xe, Li Xuang
Описание: Победу в поединке сильнейших бойцов неожиданно одерживает неуклюжий с виду пушистый кролик, лучше других владеющий секретами древнего кунг-фу, после чего становится главным защитником деревни. Однако, не долго ему удается купаться в лучах славы и наслаждаться вниманием поклонников. Злодеи вознамерились выкрасть у кролика магический камень и тем самым лишить его силы. Сможет ли пушистый супергерой защитить деревню и противостоять злодеям без силы волшебного камня?
Качество: DVDRip
Формат: AVI
Видео: Xvid 640x360 25fps 803kbps
Аудио: MP3 44100Hz stereo 128kbps
Субтитры: "отсутствуют"
Подробные технические данные
Shularni Ozbek tilida yozing Bu Saytda deyarli Barcha Malumotlar Ozbek tilida Bolishi kerak faqat tafsif Rus tilida qolaversin ) Barchasin Togirlab Bolgach Menga SHM orqali Xabar Bering

Mavzu yaratish 21-Okt-2017 10:31 (13 soat o‘tgach)

Iqitibos

Profil ShX

Vampire_1987

Jins:
Ko‘rsatilmagan
Staj:
1 yil
Xabarlar:
114
Taqiq:

551Tarjima: Профессиональный (дублированный)
O'zbek Tilida Yozing
551Подробные технические данные
[Media Info] Bo'ladi
Poster Xam Kichkina 600x400 Bo'lsin

Mavzu yaratish 22-Okt-2017 23:54 (1 kun 13 soat o‘tgach)

Iqitibos

Profil ShX

Topik Amerika va Europa multfilmlari forumidan Vaqtincha tarqatmalar ga ko'chirildi
Vampire_1987

Mavzu yaratish 22-Okt-2017 23:57 (3 daqiqa o‘tgach)

Xabarlarni ko‘rsatish:    

Hozirgi vaqt: 23-Sen 11:47

Vaqtlar farqi: UTC + 5



Siz mavzu yaratishingiz mumkin emas
Siz xabarlarga javob qaytarishingiz mumkin emas
Siz o‘z xabarlaringizni tahrirlashingiz mumkin emas
Siz o‘z xabarlaringizni o‘chirishingiz mumkin emas
Siz so‘rovlarda ovoz berishingiz mumkin emas
Siz xabalarga fayllarni biriktirishingiz mumkin emas
Siz fayllarni ko‘chirishingiz mumkin emas