Tarqatmalar statistikasi
Yoʻq
 
     
 
 

Gr@nd ®

Jins:
Yigit
Staj:
11 oy 25 kun
Xabarlar:
150

Qayerdan: Jizzax Forish

Taqiq:

- -Kungfu yoga / Доспехи бога: В поисках сокровищ (Кунг-фу йога)
- Davlat: Indiya, Kitay
Janr: Jangari, kulguli, dеtеktiv, sarguzasht
Chiqqan yili: 2017
Davomiyligi: 01:47:05-Перевод: Профессиональный (дублированный) O'zbek tilida
Rejissiyor: Stenli Tun-Rollarda: Djеki Chan, Aarif Li, Chjan Isin, Sonu Sud, Miya, Disha Patani, Amira Dastur, Chjan Goli, Xu Min, Erik San-Описание: Arxeologiya professori Tibetda xazina qidirish uchun hindistonlik yosh hamkasblariga qo'shiladi va juda ko'p muomolarga duch kelishadi-Качество видео: HDRip
Формат видео: MKV-Video: Xvid 720x304 24fps 1 466 Kbps
Audio: Dolby AC3 48000Hz 6ch Rus
Audio: MP3 48000Hz 2ch 128kbps Uzb-

MediaInfo

General
Unique ID : 249761840454141342346098862784086534310 (0xBBE66178CE1C3411A6309B266AE3E8A6)
Format : Matroska
Format version : Version 4 / Version 2
File size : 1.51 GiB
Duration : 1h 47mn
Overall bit rate : 2 018 Kbps
Encoded date : UTC 2017-06-26 19:06:21
Writing application : mkvmerge v6.8.0 ('Theme for Great Cities') 64bit built on Mar 2 2014 21:34:26
Writing library : libebml v1.3.0 + libmatroska v1.4.1
Video
ID : 1
Format : MPEG-4 Visual
Format profile : Advanced Simple@L5
Format settings, BVOP : Yes
Format settings, QPel : No
Format settings, GMC : No warppoints
Format settings, Matrix : Custom
Codec ID : XVID
Codec ID/Hint : XviD
Duration : 1h 47mn
Bit rate : 1 466 Kbps
Width : 720 pixels
Height : 304 pixels
Display aspect ratio : 2.35:1
Frame rate : 24.000 fps
Color space : YUV
Chroma subsampling : 4:2:0
Bit depth : 8 bits
Scan type : Progressive
Compression mode : Lossy
Bits/(Pixel*Frame) : 0.279
Stream size : 1.10 GiB (73%)
Writing library : XviD 73
Default : Yes
Forced : No
Audio #1
ID : 2
Format : AC-3
Format/Info : Audio Coding 3
Mode extension : CM (complete main)
Format settings, Endianness : Big
Codec ID : A_AC3
Duration : 1h 47mn
Bit rate mode : Constant
Bit rate : 384 Kbps
Channel(s) : 6 channels
Channel positions : Front: L C R, Side: L R, LFE
Sampling rate : 48.0 KHz
Bit depth : 16 bits
Compression mode : Lossy
Stream size : 294 MiB (19%)
Default : Yes
Forced : No
Audio #2
ID : 3
Format : MPEG Audio
Format version : Version 1
Format profile : Layer 3
Mode : Joint stereo
Mode extension : MS Stereo
Codec ID : A_MPEG/L3
Codec ID/Hint : MP3
Duration : 1h 47mn
Bit rate mode : Constant
Bit rate : 128 Kbps
Channel(s) : 2 channels
Sampling rate : 44.1 KHz
Compression mode : Lossy
Stream size : 98.0 MiB (6%)
Title : Xusan_Gr@nd
Writing library : LAME3.98.2
Language : Uzbek
Default : No
Forced : No
Profil ShX
Xabarlarni ko‘rsatish:    

Hozirgi vaqt: 21-Sen 10:59

Vaqtlar farqi: UTC + 5



Siz mavzu yaratishingiz mumkin emas
Siz xabarlarga javob qaytarishingiz mumkin emas
Siz o‘z xabarlaringizni tahrirlashingiz mumkin emas
Siz o‘z xabarlaringizni o‘chirishingiz mumkin emas
Siz so‘rovlarda ovoz berishingiz mumkin emas
Siz xabalarga fayllarni biriktirishingiz mumkin emas
Siz fayllarni ko‘chirishingiz mumkin emas